  0
SECTION
  2
HEADER
  9
$ACADVER
  1
AC1015
  9
$ACADMAINTVER
 70
     6
  9
$DWGCODEPAGE
  3
DOS932
  9
$INSBASE
 10
0.0
 20
0.0
 30
0.0
  9
$EXTMIN
 10
0.0
 20
0.0
 30
0.0
  9
$EXTMAX
 10
297.0
 20
210.0
 30
0.0
  9
$LIMMIN
 10
0.0
 20
0.0
  9
$LIMMAX
 10
297.0
 20
210.0
  9
$ORTHOMODE
 70
     0
  9
$REGENMODE
 70
     1
  9
$FILLMODE
 70
     1
  9
$QTEXTMODE
 70
     0
  9
$MIRRTEXT
 70
     1
  9
$LTSCALE
 40
1.0
  9
$ATTMODE
 70
     1
  9
$TEXTSIZE
 40
3.5
  9
$TRACEWID
 40
1.0
  9
$TEXTSTYLE
  7
Standard
  9
$CLAYER
  8
0
  9
$CELTYPE
  6
ByLayer
  9
$CECOLOR
 62
   256
  9
$CELTSCALE
 40
1.0
  9
$DISPSILH
 70
     0
  9
$DIMSCALE
 40
1.0
  9
$DIMASZ
 40
3.302
  9
$DIMEXO
 40
1.0
  9
$DIMDLI
 40
3.75
  9
$DIMRND
 40
0.0
  9
$DIMDLE
 40
0.0
  9
$DIMEXE
 40
1.0
  9
$DIMTP
 40
0.0
  9
$DIMTM
 40
0.0
  9
$DIMTXT
 40
3.5
  9
$DIMCEN
 40
2.5
  9
$DIMTSZ
 40
0.0
  9
$DIMTOL
 70
     0
  9
$DIMLIM
 70
     0
  9
$DIMTIH
 70
     1
  9
$DIMTOH
 70
     1
  9
$DIMSE1
 70
     0
  9
$DIMSE2
 70
     0
  9
$DIMTAD
 70
     1
  9
$DIMZIN
 70
     0
  9
$DIMBLK
  1

  9
$DIMASO
 70
     1
  9
$DIMSHO
 70
     1
  9
$DIMPOST
  1

  9
$DIMAPOST
  1

  9
$DIMALT
 70
     0
  9
$DIMALTD
 70
     3
  9
$DIMALTF
 40
0.0393700787
  9
$DIMLFAC
 40
1.0
  9
$DIMTOFL
 70
     1
  9
$DIMTVP
 40
0.0
  9
$DIMTIX
 70
     0
  9
$DIMSOXD
 70
     0
  9
$DIMSAH
 70
     0
  9
$DIMBLK1
  1

  9
$DIMBLK2
  1

  9
$DIMSTYLE
  2
ISO-25
  9
$DIMCLRD
 70
     0
  9
$DIMCLRE
 70
     0
  9
$DIMCLRT
 70
     0
  9
$DIMTFAC
 40
1.0
  9
$DIMGAP
 40
1.524
  9
$DIMJUST
 70
     0
  9
$DIMSD1
 70
     0
  9
$DIMSD2
 70
     0
  9
$DIMTOLJ
 70
     0
  9
$DIMTZIN
 70
     0
  9
$DIMALTZ
 70
     0
  9
$DIMALTTZ
 70
     0
  9
$DIMUPT
 70
     0
  9
$DIMDEC
 70
     2
  9
$DIMTDEC
 70
     2
  9
$DIMALTU
 70
     2
  9
$DIMALTTD
 70
     3
  9
$DIMTXSTY
  7
Standard
  9
$DIMAUNIT
 70
     0
  9
$DIMADEC
 70
     2
  9
$DIMALTRND
 40
0.0
  9
$DIMAZIN
 70
     0
  9
$DIMDSEP
 70
    44
  9
$DIMATFIT
 70
     3
  9
$DIMFRAC
 70
     0
  9
$DIMLDRBLK
  1

  9
$DIMLUNIT
 70
     2
  9
$DIMLWD
 70
    -2
  9
$DIMLWE
 70
    -2
  9
$DIMTMOVE
 70
     0
  9
$LUNITS
 70
     2
  9
$LUPREC
 70
     2
  9
$SKETCHINC
 40
1.0
  9
$FILLETRAD
 40
10.0
  9
$AUNITS
 70
     0
  9
$AUPREC
 70
     2
  9
$MENU
  1
.
  9
$ELEVATION
 40
0.0
  9
$PELEVATION
 40
0.0
  9
$THICKNESS
 40
0.0
  9
$LIMCHECK
 70
     0
  9
$CHAMFERA
 40
0.0
  9
$CHAMFERB
 40
0.0
  9
$CHAMFERC
 40
0.0
  9
$CHAMFERD
 40
0.0
  9
$SKPOLY
 70
     0
  9
$TDCREATE
 40
2457231.545934294
  9
$TDUCREATE
 40
2457231.170934294
  9
$TDUPDATE
 40
2457231.545940914
  9
$TDUUPDATE
 40
2457231.170940914
  9
$TDINDWG
 40
0.0000000116
  9
$TDUSRTIMER
 40
0.0000000116
  9
$USRTIMER
 70
     1
  9
$ANGBASE
 50
0.0
  9
$ANGDIR
 70
     0
  9
$PDMODE
 70
     0
  9
$PDSIZE
 40
-1.0
  9
$PLINEWID
 40
0.0
  9
$SPLFRAME
 70
     0
  9
$SPLINETYPE
 70
     6
  9
$SPLINESEGS
 70
     8
  9
$HANDSEED
  5
322
  9
$SURFTAB1
 70
     6
  9
$SURFTAB2
 70
     6
  9
$SURFTYPE
 70
     6
  9
$SURFU
 70
     6
  9
$SURFV
 70
     6
  9
$UCSBASE
  2

  9
$UCSNAME
  2

  9
$UCSORG
 10
0.0
 20
0.0
 30
0.0
  9
$UCSXDIR
 10
1.0
 20
0.0
 30
0.0
  9
$UCSYDIR
 10
0.0
 20
1.0
 30
0.0
  9
$UCSORTHOREF
  2

  9
$UCSORTHOVIEW
 70
     0
  9
$UCSORGTOP
 10
0.0
 20
0.0
 30
0.0
  9
$UCSORGBOTTOM
 10
0.0
 20
0.0
 30
0.0
  9
$UCSORGLEFT
 10
0.0
 20
0.0
 30
0.0
  9
$UCSORGRIGHT
 10
0.0
 20
0.0
 30
0.0
  9
$UCSORGFRONT
 10
0.0
 20
0.0
 30
0.0
  9
$UCSORGBACK
 10
0.0
 20
0.0
 30
0.0
  9
$PUCSBASE
  2

  9
$PUCSNAME
  2

  9
$PUCSORG
 10
0.0
 20
0.0
 30
0.0
  9
$PUCSXDIR
 10
1.0
 20
0.0
 30
0.0
  9
$PUCSYDIR
 10
0.0
 20
1.0
 30
0.0
  9
$PUCSORTHOREF
  2

  9
$PUCSORTHOVIEW
 70
     0
  9
$PUCSORGTOP
 10
0.0
 20
0.0
 30
0.0
  9
$PUCSORGBOTTOM
 10
0.0
 20
0.0
 30
0.0
  9
$PUCSORGLEFT
 10
0.0
 20
0.0
 30
0.0
  9
$PUCSORGRIGHT
 10
0.0
 20
0.0
 30
0.0
  9
$PUCSORGFRONT
 10
0.0
 20
0.0
 30
0.0
  9
$PUCSORGBACK
 10
0.0
 20
0.0
 30
0.0
  9
$USERI1
 70
     0
  9
$USERI2
 70
     0
  9
$USERI3
 70
     0
  9
$USERI4
 70
     0
  9
$USERI5
 70
     0
  9
$USERR1
 40
0.0
  9
$USERR2
 40
0.0
  9
$USERR3
 40
0.0
  9
$USERR4
 40
0.0
  9
$USERR5
 40
0.0
  9
$WORLDVIEW
 70
     1
  9
$SHADEDGE
 70
     3
  9
$SHADEDIF
 70
    70
  9
$TILEMODE
 70
     1
  9
$MAXACTVP
 70
    64
  9
$PINSBASE
 10
0.0
 20
0.0
 30
0.0
  9
$PLIMCHECK
 70
     0
  9
$PEXTMIN
 10
1.0000000000E+20
 20
1.0000000000E+20
 30
1.0000000000E+20
  9
$PEXTMAX
 10
-1.0000000000E+20
 20
-1.0000000000E+20
 30
-1.0000000000E+20
  9
$PLIMMIN
 10
0.0
 20
0.0
  9
$PLIMMAX
 10
420.0
 20
297.0
  9
$UNITMODE
 70
     0
  9
$VISRETAIN
 70
     1
  9
$PLINEGEN
 70
     0
  9
$PSLTSCALE
 70
     1
  9
$TREEDEPTH
 70
  3020
  9
$CMLSTYLE
  2
Standard
  9
$CMLJUST
 70
     0
  9
$CMLSCALE
 40
20.0
  9
$PROXYGRAPHICS
 70
     1
  9
$MEASUREMENT
 70
     1
  9
$CELWEIGHT
370
    -1
  9
$ENDCAPS
280
     0
  9
$JOINSTYLE
280
     0
  9
$LWDISPLAY
290
     1
  9
$INSUNITS
 70
     4
  9
$HYPERLINKBASE
  1

  9
$STYLESHEET
  1

  9
$XEDIT
290
     1
  9
$CEPSNTYPE
380
     0
  9
$PSTYLEMODE
290
     1
  9
$FINGERPRINTGUID
  2
{79FF60CA-FE4B-4939-8435-367E39961AD5}
  9
$VERSIONGUID
  2
{FAEB1C32-E019-11D5-929B-00C0DF256EC4}
  9
$EXTNAMES
290
     1
  9
$PSVPSCALE
 40
0.0
  9
$OLESTARTUP
290
     0
  0
ENDSEC
  0
SECTION
  2
CLASSES
  0
CLASS
  1
ACDBDICTIONARYWDFLT
  2
AcDbDictionaryWithDefault
  3
ObjectDBX Classes
 90
        0
280
     0
281
     0
  0
CLASS
  1
VISUALSTYLE
  2
AcDbVisualStyle
  3
ObjectDBX Classes
 90
     4095
280
     0
281
     0
  0
CLASS
  1
MATERIAL
  2
AcDbMaterial
  3
ObjectDBX Classes
 90
     1153
280
     0
281
     0
  0
CLASS
  1
SCALE
  2
AcDbScale
  3
ObjectDBX Classes
 90
     1153
280
     0
281
     0
  0
CLASS
  1
SUN
  2
AcDbSun
  3
SCENEOE
 90
     1153
280
     0
281
     0
  0
CLASS
  1
ACDBPLACEHOLDER
  2
AcDbPlaceHolder
  3
ObjectDBX Classes
 90
        0
280
     0
281
     0
  0
CLASS
  1
LAYOUT
  2
AcDbLayout
  3
ObjectDBX Classes
 90
        0
280
     0
281
     0
  0
ENDSEC
  0
SECTION
  2
TABLES
  0
TABLE
  2
VPORT
  5
8
330
0
100
AcDbSymbolTable
 70
     1
  0
VPORT
  5
29
330
8
100
AcDbSymbolTableRecord
100
AcDbViewportTableRecord
  2
*Active
 70
     0
 10
0.0
 20
0.0
 11
1.0
 21
1.0
 12
148.5
 22
105.0
 13
0.0
 23
0.0
 14
10.0
 24
10.0
 15
10.0
 25
10.0
 16
0.0
 26
0.0
 36
1.0
 17
0.0
 27
0.0
 37
0.0
 40
210.0
 41
1.4142857143
 42
50.0
 43
0.0
 44
0.0
 50
0.0
 51
0.0
 71
     0
 72
  2000
 73
     1
 74
     3
 75
     0
 76
     0
 77
     0
 78
     0
281
     0
 65
     1
110
0.0
120
0.0
130
0.0
111
1.0
121
0.0
131
0.0
112
0.0
122
1.0
132
0.0
 79
     0
146
0.0
  0
ENDTAB
  0
TABLE
  2
LTYPE
  5
5
330
0
100
AcDbSymbolTable
 70
     6
  0
LTYPE
  5
14
330
5
100
AcDbSymbolTableRecord
100
AcDbLinetypeTableRecord
  2
ByBlock
 70
     0
  3

 72
    65
 73
     0
 40
0.0
  0
LTYPE
  5
15
330
5
100
AcDbSymbolTableRecord
100
AcDbLinetypeTableRecord
  2
ByLayer
 70
     0
  3

 72
    65
 73
     0
 40
0.0
  0
LTYPE
  5
16
330
5
100
AcDbSymbolTableRecord
100
AcDbLinetypeTableRecord
  2
Continuous
 70
     0
  3
Solid line
 72
    65
 73
     0
 40
0.0
  0
LTYPE
  5
6A
330
5
100
AcDbSymbolTableRecord
100
AcDbLinetypeTableRecord
  2
HIDDEN
 70
     0
  3
Hidden __ __ __ __ __ __ __ __ __ __ __ __ __ __
 72
    65
 73
     2
 40
1.905
 49
1.27
 74
     0
 49
-0.635
 74
     0
  0
LTYPE
  5
6B
330
5
100
AcDbSymbolTableRecord
100
AcDbLinetypeTableRecord
  2
PHANTOM
 70
     0
  3
Phantom ______  __  __  ______  __  __  ______
 72
    65
 73
     6
 40
12.7
 49
6.35
 74
     0
 49
-1.27
 74
     0
 49
1.27
 74
     0
 49
-1.27
 74
     0
 49
1.27
 74
     0
 49
-1.27
 74
     0
  0
LTYPE
  5
6C
330
5
100
AcDbSymbolTableRecord
100
AcDbLinetypeTableRecord
  2
CENTER
 70
     0
  3
Center ____ _ ____ _ ____ _ ____ _ ____ _ ____
 72
    65
 73
     4
 40
10.16
 49
6.35
 74
     0
 49
-1.27
 74
     0
 49
1.27
 74
     0
 49
-1.27
 74
     0
  0
LTYPE
  5
6D
330
5
100
AcDbSymbolTableRecord
100
AcDbLinetypeTableRecord
  2
CENTERX2
 70
     0
  3
Center (2x) ________  __  ________  __  _____
 72
    65
 73
     4
 40
20.32
 49
12.7
 74
     0
 49
-2.54
 74
     0
 49
2.54
 74
     0
 49
-2.54
 74
     0
  0
LTYPE
  5
6E
330
5
100
AcDbSymbolTableRecord
100
AcDbLinetypeTableRecord
  2
DOT2
 70
     0
  3
Dot (.5x) ........................................
 72
    65
 73
     2
 40
0.635
 49
0.0
 74
     0
 49
-0.635
 74
     0
  0
ENDTAB
  0
TABLE
  2
LAYER
  5
2
330
0
100
AcDbSymbolTable
 70
     2
  0
LAYER
  5
10
330
2
100
AcDbSymbolTableRecord
100
AcDbLayerTableRecord
  2
0
 70
     0
 62
     7
  6
Continuous
370
    -3
390
F
  0
LAYER
  5
6F
330
2
100
AcDbSymbolTableRecord
100
AcDbLayerTableRecord
  2
FORMAT
 70
     0
 62
     7
  6
Continuous
370
    -3
390
F
  0
ENDTAB
  0
TABLE
  2
STYLE
  5
3
330
0
100
AcDbSymbolTable
 70
     4
  0
STYLE
  5
11
330
3
100
AcDbSymbolTableRecord
100
AcDbTextStyleTableRecord
  2
Standard
 70
     0
 40
0.0
 41
1.0
 50
0.0
 71
     0
 42
3.5
  3
txt
  4
bigfont
  0
STYLE
  5
FA
330
3
100
AcDbSymbolTableRecord
100
AcDbTextStyleTableRecord
  2
SLDTEXTSTYLE0
 70
     0
 40
0.0
 41
0.75
 50
0.0
 71
     0
 42
3.5
  3
TXT
  4
bigfont
  0
STYLE
  5
10A
330
3
100
AcDbSymbolTableRecord
100
AcDbTextStyleTableRecord
  2
SLDTEXTSTYLE1
 70
     0
 40
0.0
 41
0.605
 50
0.0
 71
     0
 42
3.5
  3
TXT
  4
bigfont
  0
STYLE
  5
10C
330
3
100
AcDbSymbolTableRecord
100
AcDbTextStyleTableRecord
  2
SLDTEXTSTYLE2
 70
     0
 40
0.0
 41
0.7
 50
0.0
 71
     0
 42
3.5
  3
TXT
  4
bigfont
  0
ENDTAB
  0
TABLE
  2
VIEW
  5
6
330
0
100
AcDbSymbolTable
 70
     0
  0
ENDTAB
  0
TABLE
  2
UCS
  5
7
330
0
100
AcDbSymbolTable
 70
     0
  0
ENDTAB
  0
TABLE
  2
APPID
  5
9
330
0
100
AcDbSymbolTable
 70
     1
  0
APPID
  5
12
330
9
100
AcDbSymbolTableRecord
100
AcDbRegAppTableRecord
  2
ACAD
 70
     0
  0
ENDTAB
  0
TABLE
  2
DIMSTYLE
  5
A
330
0
100
AcDbSymbolTable
 70
    11
100
AcDbDimStyleTable
  0
DIMSTYLE
105
27
330
A
100
AcDbSymbolTableRecord
100
AcDbDimStyleTableRecord
  2
ISO-25
 70
     0
 41
2.5
 42
0.625
 43
3.75
 44
1.25
 73
     0
 74
     0
 77
     1
 78
     8
140
2.5
141
2.5
143
0.0393700787
147
0.625
171
     3
172
     1
178
     0
271
     2
272
     2
274
     3
278
    44
283
     0
284
     8
340
11
  0
DIMSTYLE
105
144
102
{ACAD_REACTORS
330
143
102
}
330
A
100
AcDbSymbolTableRecord
100
AcDbDimStyleTableRecord
  2
SLDDIMSTYLE0
 70
     0
 41
3.302
 44
0.0
 45
0.000000001
 73
     0
 74
     0
 77
     1
 78
    12
 79
     3
140
3.5
147
0.875
173
     1
178
     0
271
     1
272
     2
276
     2
284
    12
340
FA
  0
DIMSTYLE
105
14F
102
{ACAD_REACTORS
330
14E
330
159
330
173
330
1A8
102
}
330
A
100
AcDbSymbolTableRecord
100
AcDbDimStyleTableRecord
  2
SLDDIMSTYLE1
 70
     0
 41
3.302
 44
0.0
 45
0.000000001
 73
     0
 74
     0
 77
     1
 78
    12
 79
     3
140
3.5
147
0.875
173
     1
178
     0
271
     2
272
     2
276
     2
284
    12
340
FA
  0
DIMSTYLE
105
164
102
{ACAD_REACTORS
330
163
102
}
330
A
100
AcDbSymbolTableRecord
100
AcDbDimStyleTableRecord
  2
SLDDIMSTYLE2
 70
     0
  3
<>
 41
3.302
 44
0.0
 45
0.000000001
 73
     0
 74
     0
 77
     1
 78
    12
 79
     3
140
3.5
141
0.0
147
0.875
173
     1
178
     0
271
     2
272
     2
276
     2
284
    12
340
FA
  0
DIMSTYLE
105
16C
102
{ACAD_REACTORS
330
16B
102
}
330
A
100
AcDbSymbolTableRecord
100
AcDbDimStyleTableRecord
  2
SLDDIMSTYLE3
 70
     0
  3
<>
 41
3.302
 44
0.0
 45
0.000000001
 73
     0
 74
     0
 77
     1
 78
    12
 79
     3
140
3.5
141
0.0
147
0.875
173
     1
178
     0
271
     1
272
     1
276
     2
284
    12
340
FA
  0
DIMSTYLE
105
17E
102
{ACAD_REACTORS
330
17D
330
1C9
102
}
330
A
100
AcDbSymbolTableRecord
100
AcDbDimStyleTableRecord
  2
SLDDIMSTYLE4
 70
     0
 41
3.302
 44
0.0
 45
0.000000001
 73
     0
 74
     0
 77
     1
 78
    12
 79
     3
140
3.5
147
0.875
172
     1
173
     1
178
     0
271
     2
272
     2
276
     2
284
    12
289
     0
340
FA
  0
DIMSTYLE
105
18B
102
{ACAD_REACTORS
330
18A
330
1D5
102
}
330
A
100
AcDbSymbolTableRecord
100
AcDbDimStyleTableRecord
  2
SLDDIMSTYLE5
 70
     0
 41
3.302
 44
0.0
 45
0.000000001
 73
     0
 74
     0
 77
     1
 78
    12
 79
     3
140
3.5
141
0.0
147
0.875
173
     1
178
     0
271
     2
272
     2
276
     2
284
    12
340
FA
  0
DIMSTYLE
105
194
102
{ACAD_REACTORS
330
193
330
1B2
330
23B
330
261
102
}
330
A
100
AcDbSymbolTableRecord
100
AcDbDimStyleTableRecord
  2
SLDDIMSTYLE6
 70
     0
 41
3.302
 44
0.0
 45
0.000000001
 73
     0
 74
     0
 77
     1
 78
    12
 79
     3
140
3.5
147
0.875
172
     1
173
     1
178
     0
271
     1
272
     2
276
     2
284
    12
289
     0
340
FA
  0
DIMSTYLE
105
1A1
102
{ACAD_REACTORS
330
1A0
102
}
330
A
100
AcDbSymbolTableRecord
100
AcDbDimStyleTableRecord
  2
SLDDIMSTYLE7
 70
     0
 41
3.302
 44
0.0
 45
0.000000001
 73
     0
 74
     0
 77
     1
 78
    12
 79
     3
140
3.5
141
0.0
147
0.875
173
     1
178
     0
271
     2
272
     2
276
     2
284
    12
340
FA
  0
DIMSTYLE
105
1BF
102
{ACAD_REACTORS
330
1BE
102
}
330
A
100
AcDbSymbolTableRecord
100
AcDbDimStyleTableRecord
  2
SLDDIMSTYLE8
 70
     0
 41
3.302
 44
0.0
 45
0.000000001
 73
     0
 74
     0
 77
     1
 78
     4
 79
     1
140
3.5
147
0.875
173
     1
178
     0
271
     2
272
     2
276
     2
284
    12
340
FA
  0
DIMSTYLE
105
248
102
{ACAD_REACTORS
330
247
330
255
102
}
330
A
100
AcDbSymbolTableRecord
100
AcDbDimStyleTableRecord
  2
SLDDIMSTYLE9
 70
     0
 41
3.302
 44
0.0
 45
0.000000001
 73
     0
 74
     0
 77
     1
 78
    12
 79
     3
140
3.5
147
0.875
172
     1
173
     1
178
     0
271
     1
272
     1
276
     2
284
    12
289
     0
340
FA
  0
ENDTAB
  0
TABLE
  2
BLOCK_RECORD
  5
1
330
0
100
AcDbSymbolTable
 70
    27
  0
BLOCK_RECORD
  5
1F
330
1
100
AcDbSymbolTableRecord
100
AcDbBlockTableRecord
  2
*Model_Space
340
22
  0
BLOCK_RECORD
  5
1B
330
1
100
AcDbSymbolTableRecord
100
AcDbBlockTableRecord
  2
*Paper_Space
340
1E
  0
BLOCK_RECORD
  5
23
330
1
100
AcDbSymbolTableRecord
100
AcDbBlockTableRecord
  2
*Paper_Space0
340
26
  0
BLOCK_RECORD
  5
70
330
1
100
AcDbSymbolTableRecord
100
AcDbBlockTableRecord
  2
HDLOGOWK
340
0
102
{BLKREFS
331
F9
102
}
  0
BLOCK_RECORD
  5
145
330
1
100
AcDbSymbolTableRecord
100
AcDbBlockTableRecord
  2
_D
340
0
  0
BLOCK_RECORD
  5
150
330
1
100
AcDbSymbolTableRecord
100
AcDbBlockTableRecord
  2
_D_1
340
0
  0
BLOCK_RECORD
  5
15A
330
1
100
AcDbSymbolTableRecord
100
AcDbBlockTableRecord
  2
_D_2
340
0
  0
BLOCK_RECORD
  5
165
330
1
100
AcDbSymbolTableRecord
100
AcDbBlockTableRecord
  2
_D_3
340
0
  0
BLOCK_RECORD
  5
16D
330
1
100
AcDbSymbolTableRecord
100
AcDbBlockTableRecord
  2
_D_4
340
0
  0
BLOCK_RECORD
  5
174
330
1
100
AcDbSymbolTableRecord
100
AcDbBlockTableRecord
  2
_D_5
340
0
  0
BLOCK_RECORD
  5
17F
330
1
100
AcDbSymbolTableRecord
100
AcDbBlockTableRecord
  2
_D_6
340
0
  0
BLOCK_RECORD
  5
18C
330
1
100
AcDbSymbolTableRecord
100
AcDbBlockTableRecord
  2
_D_7
340
0
  0
BLOCK_RECORD
  5
195
330
1
100
AcDbSymbolTableRecord
100
AcDbBlockTableRecord
  2
_D_8
340
0
  0
BLOCK_RECORD
  5
1A2
330
1
100
AcDbSymbolTableRecord
100
AcDbBlockTableRecord
  2
_D_9
340
0
  0
BLOCK_RECORD
  5
1A9
330
1
100
AcDbSymbolTableRecord
100
AcDbBlockTableRecord
  2
_D_10
340
0
  0
BLOCK_RECORD
  5
1B3
330
1
100
AcDbSymbolTableRecord
100
AcDbBlockTableRecord
  2
_D_11
340
0
  0
BLOCK_RECORD
  5
1C0
330
1
100
AcDbSymbolTableRecord
100
AcDbBlockTableRecord
  2
_D_12
340
0
  0
BLOCK_RECORD
  5
1CA
330
1
100
AcDbSymbolTableRecord
100
AcDbBlockTableRecord
  2
_D_13
340
0
  0
BLOCK_RECORD
  5
1D6
330
1
100
AcDbSymbolTableRecord
100
AcDbBlockTableRecord
  2
_D_14
340
0
  0
BLOCK_RECORD
  5
1DD
330
1
100
AcDbSymbolTableRecord
100
AcDbBlockTableRecord
  2
SW_CENTERMARKSYMBOL_0
340
0
102
{BLKREFS
331
1E8
102
}
  0
BLOCK_RECORD
  5
1E9
330
1
100
AcDbSymbolTableRecord
100
AcDbBlockTableRecord
  2
SW_CENTERMARKSYMBOL_1
340
0
102
{BLKREFS
331
1F4
102
}
  0
BLOCK_RECORD
  5
1F5
330
1
100
AcDbSymbolTableRecord
100
AcDbBlockTableRecord
  2
SW_CENTERMARKSYMBOL_2
340
0
102
{BLKREFS
331
200
102
}
  0
BLOCK_RECORD
  5
201
330
1
100
AcDbSymbolTableRecord
100
AcDbBlockTableRecord
  2
SW_CENTERMARKSYMBOL_3
340
0
102
{BLKREFS
331
20C
102
}
  0
BLOCK_RECORD
  5
20D
330
1
100
AcDbSymbolTableRecord
100
AcDbBlockTableRecord
  2
SW_CENTERMARKSYMBOL_4
340
0
102
{BLKREFS
331
218
102
}
  0
BLOCK_RECORD
  5
219
330
1
100
AcDbSymbolTableRecord
100
AcDbBlockTableRecord
  2
SW_CENTERMARKSYMBOL_5
340
0
102
{BLKREFS
331
224
102
}
  0
BLOCK_RECORD
  5
23C
330
1
100
AcDbSymbolTableRecord
100
AcDbBlockTableRecord
  2
_D_15
340
0
  0
BLOCK_RECORD
  5
249
330
1
100
AcDbSymbolTableRecord
100
AcDbBlockTableRecord
  2
_D_16
340
0
  0
BLOCK_RECORD
  5
256
330
1
100
AcDbSymbolTableRecord
100
AcDbBlockTableRecord
  2
_D_17
340
0
  0
BLOCK_RECORD
  5
262
330
1
100
AcDbSymbolTableRecord
100
AcDbBlockTableRecord
  2
_D_18
340
0
  0
ENDTAB
  0
ENDSEC
  0
SECTION
  2
BLOCKS
  0
BLOCK
  5
20
330
1F
100
AcDbEntity
  8
0
100
AcDbBlockBegin
  2
*Model_Space
 70
     0
 10
0.0
 20
0.0
 30
0.0
  3
*Model_Space
  1
*Model_Space
  0
ENDBLK
  5
21
330
1F
100
AcDbEntity
  8
0
100
AcDbBlockEnd
  0
BLOCK
  5
1C
330
1B
100
AcDbEntity
 67
     1
  8
0
100
AcDbBlockBegin
  2
*Paper_Space
 70
     0
 10
0.0
 20
0.0
 30
0.0
  3
*Paper_Space
  1
*Paper_Space
  0
ENDBLK
  5
1D
330
1B
100
AcDbEntity
 67
     1
  8
0
100
AcDbBlockEnd
  0
BLOCK
  5
24
330
23
100
AcDbEntity
  8
0
100
AcDbBlockBegin
  2
*Paper_Space0
 70
     0
 10
0.0
 20
0.0
 30
0.0
  3
*Paper_Space0
  1
*Paper_Space0
  0
ENDBLK
  5
25
330
23
100
AcDbEntity
  8
0
100
AcDbBlockEnd
  0
BLOCK
  5
71
330
70
100
AcDbEntity
  8
0
100
AcDbBlockBegin
  2
HDLOGOWK
 70
     0
 10
0.0
 20
0.0
 30
0.0
  3
HDLOGOWK
  1
HDLOGOWK
  0
ARC
  5
73
330
70
100
AcDbEntity
  8
0
  6
Continuous
 62
     7
370
     0
100
AcDbCircle
 10
50.4707540947
 20
24.3625852675
 30
0.0
 40
9.999992951841914
100
AcDbArc
 50
165.9637068132
 51
270.0000139576
  0
ARC
  5
74
330
70
100
AcDbEntity
  8
0
  6
Continuous
 62
     7
370
     0
100
AcDbCircle
 10
215.7133271573
 20
40.3631539754
 30
0.0
 40
14.00002486220112
100
AcDbArc
 50
347.0055124606
 51
90.0023965622
  0
ARC
  5
75
330
70
100
AcDbEntity
  8
0
  6
Continuous
 62
     7
370
     0
100
AcDbCircle
 10
214.7831779767
 20
40.3623726125
 30
0.0
 40
5.999998546612776
100
AcDbArc
 50
345.4256689891
 51
90.0007570592
  0
ARC
  5
76
330
70
100
AcDbEntity
  8
0
  6
Continuous
 62
     7
370
     0
100
AcDbCircle
 10
211.4032675025
 20
27.8629877206
 30
0.0
 40
6.000029584963313
100
AcDbArc
 50
270.0032263403
 51
345.4256511313
  0
ARC
  5
77
330
70
100
AcDbEntity
  8
0
  6
Continuous
 62
     7
370
     0
100
AcDbCircle
 10
216.1260212064
 20
24.3625506966
 30
0.0
 40
9.999982604287181
100
AcDbArc
 50
270.0001075755
 51
347.0055299079
  0
ARC
  5
78
330
70
100
AcDbEntity
  8
0
  6
Continuous
 62
     7
370
     0
100
AcDbCircle
 10
56.1013496854
 20
28.0004912151
 30
0.0
 40
5.000017715786828
100
AcDbArc
 50
165.9640185413
 51
269.9998410189
  0
LINE
  5
79
330
70
100
AcDbEntity
  8
0
  6
Continuous
 62
     7
370
     0
100
AcDbLine
 10
10.0000012875
 20
40.0000051498
 30
0.0
 11
19.9999965191
 21
40.0000051498
 31
0.0
  0
LINE
  5
7A
330
70
100
AcDbEntity
  8
0
  6
Continuous
 62
     7
370
     0
100
AcDbLine
 10
10.0000012875
 20
0.0
 30
0.0
 11
0.0
 21
0.0
 31
0.0
  0
LINE
  5
7B
330
70
100
AcDbEntity
  8
0
  6
Continuous
 62
     7
370
     0
100
AcDbLine
 10
0.0
 20
0.0
 30
0.0
 11
10.0000012875
 21
40.0000051498
 31
0.0
  0
LINE
  5
7C
330
70
100
AcDbEntity
  8
0
  6
Continuous
 62
     7
370
     0
100
AcDbLine
 10
29.9999978065
 20
40.0000051498
 30
0.0
 11
39.9999930382
 21
40.0000051498
 31
0.0
  0
LINE
  5
7D
330
70
100
AcDbEntity
  8
0
  6
Continuous
 62
     7
370
     0
100
AcDbLine
 10
39.9999930382
 20
40.0000051498
 30
0.0
 11
29.9999978065
 21
0.0
 31
0.0
  0
LINE
  5
7E
330
70
100
AcDbEntity
  8
0
  6
Continuous
 62
     7
370
     0
100
AcDbLine
 10
29.9999978065
 20
0.0
 30
0.0
 11
19.9999965191
 21
0.0
 31
0.0
  0
LINE
  5
7F
330
70
100
AcDbEntity
  8
0
  6
Continuous
 62
     7
370
     0
100
AcDbLine
 10
14.3750007153
 20
17.5000219345
 30
0.0
 11
24.3749959469
 21
17.5000219345
 31
0.0
  0
LINE
  5
80
330
70
100
AcDbEntity
  8
0
  6
Continuous
 62
     7
370
     0
100
AcDbLine
 10
16.2499952793
 20
25.0000001907
 30
0.0
 11
26.2499965668
 21
25.0000001907
 31
0.0
  0
LINE
  5
81
330
70
100
AcDbEntity
  8
0
  6
Continuous
 62
     7
370
     0
100
AcDbLine
 10
16.2499952793
 20
25.0000001907
 30
0.0
 11
19.9999965191
 21
40.0000051498
 31
0.0
  0
LINE
  5
82
330
70
100
AcDbEntity
  8
0
  6
Continuous
 62
     7
370
     0
100
AcDbLine
 10
14.3750007153
 20
17.5000219345
 30
0.0
 11
10.0000012875
 21
0.0
 31
0.0
  0
LINE
  5
83
330
70
100
AcDbEntity
  8
0
  6
Continuous
 62
     7
370
     0
100
AcDbLine
 10
26.2499965668
 20
25.0000001907
 30
0.0
 11
29.9999978065
 21
40.0000051498
 31
0.0
  0
LINE
  5
84
330
70
100
AcDbEntity
  8
0
  6
Continuous
 62
     7
370
     0
100
AcDbLine
 10
24.3749959469
 20
17.5000219345
 30
0.0
 11
19.9999965191
 21
0.0
 31
0.0
  0
LINE
  5
85
330
70
100
AcDbEntity
  8
0
  6
Continuous
 62
     7
370
     0
100
AcDbLine
 10
47.6974761963
 20
54.5004766464
 30
0.0
 11
57.6974472046
 21
54.5004766464
 31
0.0
  0
LINE
  5
86
330
70
100
AcDbEntity
  8
0
  6
Continuous
 62
     7
370
     0
100
AcDbLine
 10
70.4998513222
 20
54.5004766464
 30
0.0
 11
80.4998465538
 21
54.5004766464
 31
0.0
  0
LINE
  5
87
330
70
100
AcDbEntity
  8
0
  6
Continuous
 62
     7
370
     0
100
AcDbLine
 10
62.3748385429
 20
23.0004734993
 30
0.0
 11
70.4998513222
 21
54.5004766464
 31
0.0
  0
LINE
  5
88
330
70
100
AcDbEntity
  8
0
  6
Continuous
 62
     7
370
     0
100
AcDbLine
 10
47.6974761963
 20
54.5004766464
 30
0.0
 11
40.7693380356
 21
26.7879482269
 31
0.0
  0
LINE
  5
89
330
70
100
AcDbEntity
  8
0
  6
Continuous
 62
     7
370
     0
100
AcDbLine
 10
70.4653815269
 20
14.3625923157
 30
0.0
 11
80.4998465538
 21
54.5004766464
 31
0.0
  0
LINE
  5
8A
330
70
100
AcDbEntity
  8
0
  6
Continuous
 62
     7
370
     0
100
AcDbLine
 10
70.4653815269
 20
14.3625923157
 30
0.0
 11
50.4707565308
 21
14.3625923157
 31
0.0
  0
LINE
  5
8B
330
70
100
AcDbEntity
  8
0
  6
Continuous
 62
     7
370
     0
100
AcDbLine
 10
73.9653738022
 20
14.3625923157
 30
0.0
 11
83.9653932571
 21
54.3625732422
 31
0.0
  0
LINE
  5
8C
330
70
100
AcDbEntity
  8
0
  6
Continuous
 62
     7
370
     0
100
AcDbLine
 10
116.4653959274
 20
14.3625923157
 30
0.0
 11
126.4653669357
 21
54.3625732422
 31
0.0
  0
LINE
  5
8D
330
70
100
AcDbEntity
  8
0
  6
Continuous
 62
     7
370
     0
100
AcDbLine
 10
93.6630086899
 20
54.3625732422
 30
0.0
 11
98.1629883766
 21
31.8625658035
 31
0.0
  0
LINE
  5
8E
330
70
100
AcDbEntity
  8
0
  6
Continuous
 62
     7
370
     0
100
AcDbLine
 10
98.1629883766
 20
31.8625658035
 30
0.0
 11
116.1629919052
 21
54.3625732422
 31
0.0
  0
LINE
  5
8F
330
70
100
AcDbEntity
  8
0
  6
Continuous
 62
     7
370
     0
100
AcDbLine
 10
110.6553217888
 20
34.1223600388
 30
0.0
 11
93.4653342247
 21
12.3625932693
 31
0.0
  0
LINE
  5
90
330
70
100
AcDbEntity
  8
0
  6
Continuous
 62
     7
370
     0
100
AcDbLine
 10
110.6553217888
 20
34.1223600388
 30
0.0
 11
105.4653648376
 21
14.3625923157
 31
0.0
  0
LINE
  5
91
330
70
100
AcDbEntity
  8
0
  6
Continuous
 62
     7
370
     0
100
AcDbLine
 10
88.8141767502
 20
33.7577989578
 30
0.0
 11
93.4653342247
 21
12.3625932693
 31
0.0
  0
LINE
  5
92
330
70
100
AcDbEntity
  8
0
  6
Continuous
 62
     7
370
     0
100
AcDbLine
 10
88.8141767502
 20
33.7577989578
 30
0.0
 11
83.9653932571
 21
14.3625923157
 31
0.0
  0
LINE
  5
93
330
70
100
AcDbEntity
  8
0
  6
Continuous
 62
     7
370
     0
100
AcDbLine
 10
118.662887764
 20
14.3625680923
 30
0.0
 11
128.6629072189
 21
14.3625680923
 31
0.0
  0
LINE
  5
94
330
70
100
AcDbEntity
  8
0
  6
Continuous
 62
     7
370
     0
100
AcDbLine
 10
118.662887764
 20
14.3625680923
 30
0.0
 11
138.6628782272
 21
54.3625732422
 31
0.0
  0
LINE
  5
95
330
70
100
AcDbEntity
  8
0
  6
Continuous
 62
     7
370
     0
100
AcDbLine
 10
143.662875843
 20
14.3625680923
 30
0.0
 11
153.662895298
 21
14.3625680923
 31
0.0
  0
LINE
  5
96
330
70
100
AcDbEntity
  8
0
  6
Continuous
 62
     7
370
     0
100
AcDbLine
 10
153.662895298
 20
14.3625680923
 30
0.0
 11
148.6629097939
 21
54.3625732422
 31
0.0
  0
LINE
  5
97
330
70
100
AcDbEntity
  8
0
  6
Continuous
 62
     7
370
     0
100
AcDbLine
 10
138.6628782272
 20
54.3625732422
 30
0.0
 11
148.6629097939
 21
54.3625732422
 31
0.0
  0
LINE
  5
98
330
70
100
AcDbEntity
  8
0
  6
Continuous
 62
     7
370
     0
100
AcDbLine
 10
140.6629014969
 20
38.3625566483
 30
0.0
 11
134.9128890991
 21
26.862556076
 31
0.0
  0
LINE
  5
99
330
70
100
AcDbEntity
  8
0
  6
Continuous
 62
     7
370
     0
100
AcDbLine
 10
142.1003743172
 20
26.862556076
 30
0.0
 11
140.6629014969
 21
38.3625566483
 31
0.0
  0
LINE
  5
9A
330
70
100
AcDbEntity
  8
0
  6
Continuous
 62
     7
370
     0
100
AcDbLine
 10
134.9128890991
 20
26.862556076
 30
0.0
 11
142.1003743172
 21
26.862556076
 31
0.0
  0
LINE
  5
9B
330
70
100
AcDbEntity
  8
0
  6
Continuous
 62
     7
370
     0
100
AcDbLine
 10
131.162899971
 20
19.3625778198
 30
0.0
 11
143.03791399
 21
19.3625778198
 31
0.0
  0
LINE
  5
9C
330
70
100
AcDbEntity
  8
0
  6
Continuous
 62
     7
370
     0
100
AcDbLine
 10
131.162899971
 20
19.3625778198
 30
0.0
 11
128.6629072189
 21
14.3625680923
 31
0.0
  0
LINE
  5
9D
330
70
100
AcDbEntity
  8
0
  6
Continuous
 62
     7
370
     0
100
AcDbLine
 10
143.03791399
 20
19.3625778198
 30
0.0
 11
143.662875843
 21
14.3625680923
 31
0.0
  0
LINE
  5
9E
330
70
100
AcDbEntity
  8
0
  6
Continuous
 62
     7
370
     0
100
AcDbLine
 10
165.6627926826
 20
54.3625490189
 30
0.0
 11
175.6628121376
 21
54.3625490189
 31
0.0
  0
LINE
  5
9F
330
70
100
AcDbEntity
  8
0
  6
Continuous
 62
     7
370
     0
100
AcDbLine
 10
165.6627926826
 20
14.3625680923
 30
0.0
 11
155.6628216743
 21
14.3625680923
 31
0.0
  0
LINE
  5
A0
330
70
100
AcDbEntity
  8
0
  6
Continuous
 62
     7
370
     0
100
AcDbLine
 10
155.6628216743
 20
14.3625680923
 30
0.0
 11
165.6627926826
 21
54.3625490189
 31
0.0
  0
LINE
  5
A1
330
70
100
AcDbEntity
  8
0
  6
Continuous
 62
     7
370
     0
100
AcDbLine
 10
188.1628243446
 20
54.3625490189
 30
0.0
 11
198.1627953529
 21
54.3625490189
 31
0.0
  0
LINE
  5
A2
330
70
100
AcDbEntity
  8
0
  6
Continuous
 62
     7
370
     0
100
AcDbLine
 10
198.1627953529
 20
54.3625490189
 30
0.0
 11
188.1628243446
 21
14.3625680923
 31
0.0
  0
LINE
  5
A3
330
70
100
AcDbEntity
  8
0
  6
Continuous
 62
     7
370
     0
100
AcDbLine
 10
188.1628243446
 20
14.3625680923
 30
0.0
 11
178.9628045082
 21
14.3625680923
 31
0.0
  0
LINE
  5
A4
330
70
100
AcDbEntity
  8
0
  6
Continuous
 62
     7
370
     0
100
AcDbLine
 10
183.1627903938
 20
34.3625585556
 30
0.0
 11
175.6628121376
 21
54.3625490189
 31
0.0
  0
LINE
  5
A5
330
70
100
AcDbEntity
  8
0
  6
Continuous
 62
     7
370
     0
100
AcDbLine
 10
183.1627903938
 20
34.3625585556
 30
0.0
 11
188.1628243446
 21
54.3625490189
 31
0.0
  0
LINE
  5
A6
330
70
100
AcDbEntity
  8
0
  6
Continuous
 62
     7
370
     0
100
AcDbLine
 10
170.6628266335
 20
34.3625827789
 30
0.0
 11
178.9628045082
 21
14.3625680923
 31
0.0
  0
LINE
  5
A7
330
70
100
AcDbEntity
  8
0
  6
Continuous
 62
     7
370
     0
100
AcDbLine
 10
170.6628266335
 20
34.3625827789
 30
0.0
 11
165.6627926826
 21
14.3625680923
 31
0.0
  0
LINE
  5
A8
330
70
100
AcDbEntity
  8
0
  6
Continuous
 62
     7
370
     0
100
AcDbLine
 10
201.6628239632
 20
54.3620645523
 30
0.0
 11
191.6627560616
 21
14.3625680923
 31
0.0
  0
LINE
  5
A9
330
70
100
AcDbEntity
  8
0
  6
Continuous
 62
     7
370
     0
100
AcDbLine
 10
209.8083054543
 20
46.3622984886
 30
0.0
 11
203.5144066811
 21
21.8625705719
 31
0.0
  0
LINE
  5
AA
330
70
100
AcDbEntity
  8
0
  6
Continuous
 62
     7
370
     0
100
AcDbLine
 10
201.6629693031
 20
54.3625732422
 30
0.0
 11
215.7127415657
 21
54.3631788254
 31
0.0
  0
LINE
  5
AB
330
70
100
AcDbEntity
  8
0
  6
Continuous
 62
     7
370
     0
100
AcDbLine
 10
209.8083054543
 20
46.3622984886
 30
0.0
 11
214.7830986977
 21
46.3623711586
 31
0.0
  0
LINE
  5
AC
330
70
100
AcDbEntity
  8
0
  6
Continuous
 62
     7
370
     0
100
AcDbLine
 10
220.5901085854
 20
38.8525582314
 30
0.0
 11
217.2102276802
 21
26.3531637192
 31
0.0
  0
LINE
  5
AD
330
70
100
AcDbEntity
  8
0
  6
Continuous
 62
     7
370
     0
100
AcDbLine
 10
203.5144066811
 20
21.8625705719
 30
0.0
 11
211.4036053658
 21
21.8629581451
 31
0.0
  0
LINE
  5
AE
330
70
100
AcDbEntity
  8
0
  6
Continuous
 62
     7
370
     0
100
AcDbLine
 10
229.3548352242
 20
37.2151460648
 30
0.0
 11
225.8699219704
 21
22.1139844894
 31
0.0
  0
LINE
  5
AF
330
70
100
AcDbEntity
  8
0
  6
Continuous
 62
     7
370
     0
100
AcDbLine
 10
191.6627560616
 20
14.3625680923
 30
0.0
 11
216.1260399818
 21
14.3625680923
 31
0.0
  0
LINE
  5
B0
330
70
100
AcDbEntity
  8
0
  6
Continuous
 62
     7
370
     0
100
AcDbLine
 10
225.0426953316
 20
14.3625680923
 30
0.0
 11
235.0427147865
 21
14.3625680923
 31
0.0
  0
LINE
  5
B1
330
70
100
AcDbEntity
  8
0
  6
Continuous
 62
     7
370
     0
100
AcDbLine
 10
225.0426953316
 20
14.3625680923
 30
0.0
 11
245.0426857948
 21
54.3625732422
 31
0.0
  0
LINE
  5
B2
330
70
100
AcDbEntity
  8
0
  6
Continuous
 62
     7
370
     0
100
AcDbLine
 10
250.042671299
 20
14.3625680923
 30
0.0
 11
260.0426907539
 21
14.3625680923
 31
0.0
  0
LINE
  5
B3
330
70
100
AcDbEntity
  8
0
  6
Continuous
 62
     7
370
     0
100
AcDbLine
 10
260.0426907539
 20
14.3625680923
 30
0.0
 11
255.0427052498
 21
54.3625732422
 31
0.0
  0
LINE
  5
B4
330
70
100
AcDbEntity
  8
0
  6
Continuous
 62
     7
370
     0
100
AcDbLine
 10
245.0426857948
 20
54.3625732422
 30
0.0
 11
255.0427052498
 21
54.3625732422
 31
0.0
  0
LINE
  5
B5
330
70
100
AcDbEntity
  8
0
  6
Continuous
 62
     7
370
     0
100
AcDbLine
 10
247.0427090645
 20
38.3625566483
 30
0.0
 11
241.2926724434
 21
26.862556076
 31
0.0
  0
LINE
  5
B6
330
70
100
AcDbEntity
  8
0
  6
Continuous
 62
     7
370
     0
100
AcDbLine
 10
248.4801697731
 20
26.862556076
 30
0.0
 11
247.0427090645
 21
38.3625566483
 31
0.0
  0
LINE
  5
B7
330
70
100
AcDbEntity
  8
0
  6
Continuous
 62
     7
370
     0
100
AcDbLine
 10
241.2926724434
 20
26.862556076
 30
0.0
 11
248.4801697731
 21
26.862556076
 31
0.0
  0
LINE
  5
B8
330
70
100
AcDbEntity
  8
0
  6
Continuous
 62
     7
370
     0
100
AcDbLine
 10
237.5427075386
 20
19.3625778198
 30
0.0
 11
249.417709446
 21
19.3625778198
 31
0.0
  0
LINE
  5
B9
330
70
100
AcDbEntity
  8
0
  6
Continuous
 62
     7
370
     0
100
AcDbLine
 10
237.5427075386
 20
19.3625778198
 30
0.0
 11
235.0427147865
 21
14.3625680923
 31
0.0
  0
LINE
  5
BA
330
70
100
AcDbEntity
  8
0
  6
Continuous
 62
     7
370
     0
100
AcDbLine
 10
249.417709446
 20
19.3625778198
 30
0.0
 11
250.042671299
 21
14.3625680923
 31
0.0
  0
LINE
  5
BB
330
70
100
AcDbEntity
  8
0
  6
Continuous
 62
     7
370
     0
100
AcDbLine
 10
281.5425896645
 20
54.3625732422
 30
0.0
 11
271.5426186562
 21
54.3625732422
 31
0.0
  0
LINE
  5
BC
330
70
100
AcDbEntity
  8
0
  6
Continuous
 62
     7
370
     0
100
AcDbLine
 10
264.0425919533
 20
14.3625680923
 30
0.0
 11
274.0426114082
 21
14.3625680923
 31
0.0
  0
LINE
  5
BD
330
70
100
AcDbEntity
  8
0
  6
Continuous
 62
     7
370
     0
100
AcDbLine
 10
261.5425992012
 20
54.3625732422
 30
0.0
 11
271.5426186562
 21
54.3625732422
 31
0.0
  0
LINE
  5
BE
330
70
100
AcDbEntity
  8
0
  6
Continuous
 62
     7
370
     0
100
AcDbLine
 10
281.5425896645
 20
54.3625732422
 30
0.0
 11
291.5426091194
 21
54.3625732422
 31
0.0
  0
LINE
  5
BF
330
70
100
AcDbEntity
  8
0
  6
Continuous
 62
     7
370
     0
100
AcDbLine
 10
260.1363381386
 20
46.8625707626
 30
0.0
 11
261.5425992012
 21
54.3625732422
 31
0.0
  0
LINE
  5
C0
330
70
100
AcDbEntity
  8
0
  6
Continuous
 62
     7
370
     0
100
AcDbLine
 10
290.1363480568
 20
46.8625465393
 30
0.0
 11
291.5426091194
 21
54.3625732422
 31
0.0
  0
LINE
  5
C1
330
70
100
AcDbEntity
  8
0
  6
Continuous
 62
     7
370
     0
100
AcDbLine
 10
280.1363286018
 20
46.8625465393
 30
0.0
 11
290.1363480568
 21
46.8625465393
 31
0.0
  0
LINE
  5
C2
330
70
100
AcDbEntity
  8
0
  6
Continuous
 62
     7
370
     0
100
AcDbLine
 10
280.1363286018
 20
46.8625465393
 30
0.0
 11
274.0426114082
 21
14.3625680923
 31
0.0
  0
LINE
  5
C3
330
70
100
AcDbEntity
  8
0
  6
Continuous
 62
     7
370
     0
100
AcDbLine
 10
270.1363575935
 20
46.862594986
 30
0.0
 11
264.0425919533
 21
14.3625680923
 31
0.0
  0
LINE
  5
C4
330
70
100
AcDbEntity
  8
0
  6
Continuous
 62
     7
370
     0
100
AcDbLine
 10
270.1363575935
 20
46.8625707626
 30
0.0
 11
260.1363381386
 21
46.8625707626
 31
0.0
  0
LINE
  5
C5
330
70
100
AcDbEntity
  8
0
  6
Continuous
 62
     7
370
     0
100
AcDbLine
 10
278.5425789833
 20
14.3625680923
 30
0.0
 11
288.5425984383
 21
14.3625680923
 31
0.0
  0
LINE
  5
C6
330
70
100
AcDbEntity
  8
0
  6
Continuous
 62
     7
370
     0
100
AcDbLine
 10
278.5425789833
 20
14.3625680923
 30
0.0
 11
298.5425694466
 21
54.3625732422
 31
0.0
  0
LINE
  5
C7
330
70
100
AcDbEntity
  8
0
  6
Continuous
 62
     7
370
     0
100
AcDbLine
 10
303.5425549507
 20
14.3625680923
 30
0.0
 11
313.5425744057
 21
14.3625680923
 31
0.0
  0
LINE
  5
C8
330
70
100
AcDbEntity
  8
0
  6
Continuous
 62
     7
370
     0
100
AcDbLine
 10
313.5425744057
 20
14.3625680923
 30
0.0
 11
308.5425889015
 21
54.3625732422
 31
0.0
  0
LINE
  5
C9
330
70
100
AcDbEntity
  8
0
  6
Continuous
 62
     7
370
     0
100
AcDbLine
 10
298.5425694466
 20
54.3625732422
 30
0.0
 11
308.5425889015
 21
54.3625732422
 31
0.0
  0
LINE
  5
CA
330
70
100
AcDbEntity
  8
0
  6
Continuous
 62
     7
370
     0
100
AcDbLine
 10
300.5425927162
 20
38.3625566483
 30
0.0
 11
294.7926045418
 21
26.862556076
 31
0.0
  0
LINE
  5
CB
330
70
100
AcDbEntity
  8
0
  6
Continuous
 62
     7
370
     0
100
AcDbLine
 10
301.9800534248
 20
26.862556076
 30
0.0
 11
300.5425927162
 21
38.3625566483
 31
0.0
  0
LINE
  5
CC
330
70
100
AcDbEntity
  8
0
  6
Continuous
 62
     7
370
     0
100
AcDbLine
 10
294.7926045418
 20
26.862556076
 30
0.0
 11
301.9800534248
 21
26.862556076
 31
0.0
  0
LINE
  5
CD
330
70
100
AcDbEntity
  8
0
  6
Continuous
 62
     7
370
     0
100
AcDbLine
 10
291.0425911903
 20
19.3625778198
 30
0.0
 11
302.9175930977
 21
19.3625778198
 31
0.0
  0
LINE
  5
CE
330
70
100
AcDbEntity
  8
0
  6
Continuous
 62
     7
370
     0
100
AcDbLine
 10
291.0425911903
 20
19.3625778198
 30
0.0
 11
288.5425984383
 21
14.3625680923
 31
0.0
  0
LINE
  5
CF
330
70
100
AcDbEntity
  8
0
  6
Continuous
 62
     7
370
     0
100
AcDbLine
 10
302.9175930977
 20
19.3625778198
 30
0.0
 11
303.5425549507
 21
14.3625680923
 31
0.0
  0
LINE
  5
D0
330
70
100
AcDbEntity
  8
0
  6
Continuous
 62
     7
370
     0
100
AcDbLine
 10
83.9653932571
 20
54.3625732422
 30
0.0
 11
93.6630086899
 21
54.3625732422
 31
0.0
  0
LINE
  5
D1
330
70
100
AcDbEntity
  8
0
  6
Continuous
 62
     7
370
     0
100
AcDbLine
 10
126.4653669357
 20
54.3625732422
 30
0.0
 11
116.1629919052
 21
54.3625732422
 31
0.0
  0
LINE
  5
D2
330
70
100
AcDbEntity
  8
0
  6
Continuous
 62
     7
370
     0
100
AcDbLine
 10
116.4653959274
 20
14.3625680923
 30
0.0
 11
105.4653648376
 21
14.3625680923
 31
0.0
  0
LINE
  5
D3
330
70
100
AcDbEntity
  8
0
  6
Continuous
 62
     7
370
     0
100
AcDbLine
 10
73.9653616905
 20
14.3625680923
 30
0.0
 11
83.9653811455
 21
14.3625680923
 31
0.0
  0
LINE
  5
D4
330
70
100
AcDbEntity
  8
0
  6
Continuous
 62
     7
370
     0
100
AcDbLine
 10
57.6974472046
 20
54.5004766464
 30
0.0
 11
51.2506144524
 21
29.2131514549
 31
0.0
  0
LINE
  5
D5
330
70
100
AcDbEntity
  8
0
  6
Continuous
 62
     7
370
     0
100
AcDbLine
 10
62.3748385429
 20
23.0004734993
 30
0.0
 11
56.1013358116
 21
23.0004734993
 31
0.0
  0
ENDBLK
  5
72
330
70
100
AcDbEntity
  8
0
100
AcDbBlockEnd
  0
BLOCK
  5
146
330
145
100
AcDbEntity
  8
0
100
AcDbBlockBegin
  2
_D
 70
     0
 10
0.0
 20
0.0
 30
0.0
  3
_D
  1
_D
  0
SOLID
  5
148
330
145
100
AcDbEntity
  8
0
  6
Continuous
 62
     7
370
     0
100
AcDbTrace
 10
82.6787852466
 20
157.139419031
 30
0.0
 11
85.9807852466
 21
156.631419031
 31
0.0
 12
85.9807852466
 22
157.647419031
 32
0.0
 13
85.9807852466
 23
157.647419031
 33
0.0
  0
SOLID
  5
149
330
145
100
AcDbEntity
  8
0
  6
Continuous
 62
     7
370
     0
100
AcDbTrace
 10
117.3787852466
 20
157.139419031
 30
0.0
 11
114.0767852466
 21
157.647419031
 31
0.0
 12
114.0767852466
 22
156.631419031
 32
0.0
 13
114.0767852466
 23
156.631419031
 33
0.0
  0
LINE
  5
14A
330
145
100
AcDbEntity
  8
0
  6
Continuous
 62
     7
370
     0
100
AcDbLine
 10
82.6787852466
 20
137.139419031
 30
0.0
 11
82.6787852466
 21
158.139419031
 31
0.0
  0
LINE
  5
14B
330
145
100
AcDbEntity
  8
0
  6
Continuous
 62
     7
370
     0
100
AcDbLine
 10
117.3787852466
 20
137.139419031
 30
0.0
 11
117.3787852466
 21
158.139419031
 31
0.0
  0
LINE
  5
14C
330
145
100
AcDbEntity
  8
0
  6
Continuous
 62
     7
370
     0
100
AcDbLine
 10
82.6787852466
 20
157.139419031
 30
0.0
 11
117.3787852466
 21
157.139419031
 31
0.0
  0
MTEXT
  5
14D
330
145
100
AcDbEntity
  8
0
  6
Continuous
 62
     7
370
     0
100
AcDbMText
 10
95.5030907162
 20
161.6511559456
 30
0.0
 40
3.5
 41
0.0
 71
     1
 72
     1
  1
34.7
  7
SLDTEXTSTYLE0
 73
     1
 44
1.0
  0
ENDBLK
  5
147
330
145
100
AcDbEntity
  8
0
100
AcDbBlockEnd
  0
BLOCK
  5
151
330
150
100
AcDbEntity
  8
0
100
AcDbBlockBegin
  2
_D_1
 70
     0
 10
0.0
 20
0.0
 30
0.0
  3
_D_1
  1
_D_1
  0
SOLID
  5
153
330
150
100
AcDbEntity
  8
0
  6
Continuous
 62
     7
370
     0
100
AcDbTrace
 10
60.6787852466
 20
141.139419031
 30
0.0
 11
60.1707852466
 21
137.837419031
 31
0.0
 12
61.1867852466
 22
137.837419031
 32
0.0
 13
61.1867852466
 23
137.837419031
 33
0.0
  0
SOLID
  5
154
330
150
100
AcDbEntity
  8
0
  6
Continuous
 62
     7
370
     0
100
AcDbTrace
 10
60.6787852466
 20
64.139419031
 30
0.0
 11
61.1867852466
 21
67.441419031
 31
0.0
 12
60.1707852466
 22
67.441419031
 32
0.0
 13
60.1707852466
 23
67.441419031
 33
0.0
  0
LINE
  5
155
330
150
100
AcDbEntity
  8
0
  6
Continuous
 62
     7
370
     0
100
AcDbLine
 10
86.6787852466
 20
141.139419031
 30
0.0
 11
59.6787852466
 21
141.139419031
 31
0.0
  0
LINE
  5
156
330
150
100
AcDbEntity
  8
0
  6
Continuous
 62
     7
370
     0
100
AcDbLine
 10
86.6787852466
 20
64.139419031
 30
0.0
 11
59.6787852466
 21
64.139419031
 31
0.0
  0
LINE
  5
157
330
150
100
AcDbEntity
  8
0
  6
Continuous
 62
     7
370
     0
100
AcDbLine
 10
60.6787852466
 20
141.139419031
 30
0.0
 11
60.6787852466
 21
64.139419031
 31
0.0
  0
MTEXT
  5
158
330
150
100
AcDbEntity
  8
0
  6
Continuous
 62
     7
370
     0
100
AcDbMText
 10
56.167048332
 20
100.0533078375
 30
0.0
 40
3.5
 41
0.0
 71
     1
 72
     1
  1
77
  7
SLDTEXTSTYLE0
 11
-6.156016597943509E-15
 21
1.0
 31
0.0
 73
     1
 44
1.0
  0
ENDBLK
  5
152
330
150
100
AcDbEntity
  8
0
100
AcDbBlockEnd
  0
BLOCK
  5
15B
330
15A
100
AcDbEntity
  8
0
100
AcDbBlockBegin
  2
_D_2
 70
     0
 10
0.0
 20
0.0
 30
0.0
  3
_D_2
  1
_D_2
  0
SOLID
  5
15D
330
15A
100
AcDbEntity
  8
0
  6
Continuous
 62
     7
370
     0
100
AcDbTrace
 10
153.0328418029
 20
126.639419031
 30
0.0
 11
152.5248418029
 21
123.337419031
 31
0.0
 12
153.5408418029
 22
123.337419031
 32
0.0
 13
153.5408418029
 23
123.337419031
 33
0.0
  0
SOLID
  5
15E
330
15A
100
AcDbEntity
  8
0
  6
Continuous
 62
     7
370
     0
100
AcDbTrace
 10
153.0328418029
 20
78.639419031
 30
0.0
 11
153.5408418029
 21
81.941419031
 31
0.0
 12
152.5248418029
 22
81.941419031
 32
0.0
 13
152.5248418029
 23
81.941419031
 33
0.0
  0
LINE
  5
15F
330
15A
100
AcDbEntity
  8
0
  6
Continuous
 62
     7
370
     0
100
AcDbLine
 10
117.1787852466
 20
126.639419031
 30
0.0
 11
154.0328418029
 21
126.639419031
 31
0.0
  0
LINE
  5
160
330
15A
100
AcDbEntity
  8
0
  6
Continuous
 62
     7
370
     0
100
AcDbLine
 10
117.1787852466
 20
78.639419031
 30
0.0
 11
154.0328418029
 21
78.639419031
 31
0.0
  0
LINE
  5
161
330
15A
100
AcDbEntity
  8
0
  6
Continuous
 62
     7
370
     0
100
AcDbLine
 10
153.0328418029
 20
126.639419031
 30
0.0
 11
153.0328418029
 21
78.639419031
 31
0.0
  0
MTEXT
  5
162
330
15A
100
AcDbEntity
  8
0
  6
Continuous
 62
     7
370
     0
100
AcDbMText
 10
148.5211048883
 20
100.0533078375
 30
0.0
 40
3.5
 41
0.0
 71
     1
 72
     1
  1
48
  7
SLDTEXTSTYLE0
 11
-7.044195017643634E-15
 21
1.0
 31
0.0
 73
     1
 44
1.0
  0
ENDBLK
  5
15C
330
15A
100
AcDbEntity
  8
0
100
AcDbBlockEnd
  0
BLOCK
  5
166
330
165
100
AcDbEntity
  8
0
100
AcDbBlockBegin
  2
_D_3
 70
     0
 10
0.0
 20
0.0
 30
0.0
  3
_D_3
  1
_D_3
  0
SOLID
  5
168
330
165
100
AcDbEntity
  8
0
  6
Continuous
 62
     7
370
     0
100
AcDbTrace
 10
112.8079503712
 20
129.889419031
 30
0.0
 11
115.9215662545
 21
131.1004781259
 31
0.0
 12
115.4135662545
 22
131.9803599361
 32
0.0
 13
115.4135662545
 23
131.9803599361
 33
0.0
  0
LINE
  5
169
330
165
100
AcDbEntity
  8
0
  6
Continuous
 62
     7
370
     0
100
AcDbLine
 10
112.8079503712
 20
129.889419031
 30
0.0
 11
146.0613415499
 21
149.0882733795
 31
0.0
  0
MTEXT
  5
16A
330
165
100
AcDbEntity
  8
0
  6
Continuous
 62
     7
370
     0
100
AcDbMText
 10
132.2741281531
 20
146.3295377921
 30
0.0
 40
3.5
 41
0.0
 71
     1
 72
     1
  1
2-Φ13
  7
SLDTEXTSTYLE0
 11
0.8660254037844384
 21
0.5000000000000004
 31
0.0
 73
     1
 44
1.0
  0
ENDBLK
  5
167
330
165
100
AcDbEntity
  8
0
100
AcDbBlockEnd
  0
BLOCK
  5
16E
330
16D
100
AcDbEntity
  8
0
100
AcDbBlockBegin
  2
_D_4
 70
     0
 10
0.0
 20
0.0
 30
0.0
  3
_D_4
  1
_D_4
  0
SOLID
  5
170
330
16D
100
AcDbEntity
  8
0
  6
Continuous
 62
     7
370
     0
100
AcDbTrace
 10
112.5644258927
 20
112.439419031
 30
0.0
 11
115.678041776
 21
113.6504781259
 31
0.0
 12
115.170041776
 22
114.5303599361
 32
0.0
 13
115.170041776
 23
114.5303599361
 33
0.0
  0
LINE
  5
171
330
16D
100
AcDbEntity
  8
0
  6
Continuous
 62
     7
370
     0
100
AcDbLine
 10
112.5644258927
 20
112.439419031
 30
0.0
 11
155.0625283484
 21
136.9757099239
 31
0.0
  0
MTEXT
  5
172
330
16D
100
AcDbEntity
  8
0
  6
Continuous
 62
     7
370
     0
100
AcDbMText
 10
140.1546932185
 20
133.571836688
 30
0.0
 40
3.5
 41
0.0
 71
     1
 72
     1
  1
4-Φ3.2
  7
SLDTEXTSTYLE0
 11
0.8660254037844383
 21
0.5000000000000007
 31
0.0
 73
     1
 44
1.0
  0
ENDBLK
  5
16F
330
16D
100
AcDbEntity
  8
0
100
AcDbBlockEnd
  0
BLOCK
  5
175
330
174
100
AcDbEntity
  8
0
100
AcDbBlockBegin
  2
_D_5
 70
     0
 10
0.0
 20
0.0
 30
0.0
  3
_D_5
  1
_D_5
  0
SOLID
  5
177
330
174
100
AcDbEntity
  8
0
  6
Continuous
 62
     7
370
     0
100
AcDbTrace
 10
145.3787852466
 20
126.639419031
 30
0.0
 11
144.8707852466
 21
123.337419031
 31
0.0
 12
145.8867852466
 22
123.337419031
 32
0.0
 13
145.8867852466
 23
123.337419031
 33
0.0
  0
SOLID
  5
178
330
174
100
AcDbEntity
  8
0
  6
Continuous
 62
     7
370
     0
100
AcDbTrace
 10
145.3787852466
 20
111.639419031
 30
0.0
 11
145.8867852466
 21
114.941419031
 31
0.0
 12
144.8707852466
 22
114.941419031
 32
0.0
 13
144.8707852466
 23
114.941419031
 33
0.0
  0
LINE
  5
179
330
174
100
AcDbEntity
  8
0
  6
Continuous
 62
     7
370
     0
100
AcDbLine
 10
117.1787852466
 20
126.639419031
 30
0.0
 11
146.3787852466
 21
126.639419031
 31
0.0
  0
LINE
  5
17A
330
174
100
AcDbEntity
  8
0
  6
Continuous
 62
     7
370
     0
100
AcDbLine
 10
116.2787852466
 20
111.639419031
 30
0.0
 11
146.3787852466
 21
111.639419031
 31
0.0
  0
LINE
  5
17B
330
174
100
AcDbEntity
  8
0
  6
Continuous
 62
     7
370
     0
100
AcDbLine
 10
145.3787852466
 20
126.639419031
 30
0.0
 11
145.3787852466
 21
111.639419031
 31
0.0
  0
MTEXT
  5
17C
330
174
100
AcDbEntity
  8
0
  6
Continuous
 62
     7
370
     0
100
AcDbMText
 10
140.867048332
 20
115.578207402
 30
0.0
 40
3.5
 41
0.0
 71
     1
 72
     1
  1
15
  7
SLDTEXTSTYLE0
 11
-7.044195017643634E-15
 21
1.0
 31
0.0
 73
     1
 44
1.0
  0
ENDBLK
  5
176
330
174
100
AcDbEntity
  8
0
100
AcDbBlockEnd
  0
BLOCK
  5
180
330
17F
100
AcDbEntity
  8
0
100
AcDbBlockBegin
  2
_D_6
 70
     0
 10
0.0
 20
0.0
 30
0.0
  3
_D_6
  1
_D_6
  0
SOLID
  5
182
330
17F
100
AcDbEntity
  8
0
  6
Continuous
 62
     7
370
     0
100
AcDbTrace
 10
106.1787852466
 20
57.9907872768
 30
0.0
 11
102.8767852466
 21
58.4987872768
 31
0.0
 12
102.8767852466
 22
57.4827872768
 32
0.0
 13
102.8767852466
 23
57.4827872768
 33
0.0
  0
SOLID
  5
183
330
17F
100
AcDbEntity
  8
0
  6
Continuous
 62
     7
370
     0
100
AcDbTrace
 10
111.1787852466
 20
57.9907872768
 30
0.0
 11
114.4807852466
 21
57.4827872768
 31
0.0
 12
114.4807852466
 22
58.4987872768
 32
0.0
 13
114.4807852466
 23
58.4987872768
 33
0.0
  0
LINE
  5
184
330
17F
100
AcDbEntity
  8
0
  6
Continuous
 62
     7
370
     0
100
AcDbLine
 10
106.1787852466
 20
106.539419031
 30
0.0
 11
106.1787852466
 21
56.9907872768
 31
0.0
  0
LINE
  5
185
330
17F
100
AcDbEntity
  8
0
  6
Continuous
 62
     7
370
     0
100
AcDbLine
 10
111.1787852466
 20
106.539419031
 30
0.0
 11
111.1787852466
 21
56.9907872768
 31
0.0
  0
LINE
  5
186
330
17F
100
AcDbEntity
  8
0
  6
Continuous
 62
     7
370
     0
100
AcDbLine
 10
106.1787852466
 20
57.9907872768
 30
0.0
 11
99.8287852466
 21
57.9907872768
 31
0.0
  0
LINE
  5
187
330
17F
100
AcDbEntity
  8
0
  6
Continuous
 62
     7
370
     0
100
AcDbLine
 10
106.1787852466
 20
57.9907872768
 30
0.0
 11
111.1787852466
 21
57.9907872768
 31
0.0
  0
LINE
  5
188
330
17F
100
AcDbEntity
  8
0
  6
Continuous
 62
     7
370
     0
100
AcDbLine
 10
111.1787852466
 20
57.9907872768
 30
0.0
 11
117.5287852466
 21
57.9907872768
 31
0.0
  0
MTEXT
  5
189
330
17F
100
AcDbEntity
  8
0
  6
Continuous
 62
     7
370
     0
100
AcDbMText
 10
107.3857296499
 20
62.5025241914
 30
0.0
 40
3.5
 41
0.0
 71
     1
 72
     1
  1
5
  7
SLDTEXTSTYLE0
 73
     1
 44
1.0
  0
ENDBLK
  5
181
330
17F
100
AcDbEntity
  8
0
100
AcDbBlockEnd
  0
BLOCK
  5
18D
330
18C
100
AcDbEntity
  8
0
100
AcDbBlockBegin
  2
_D_7
 70
     0
 10
0.0
 20
0.0
 30
0.0
  3
_D_7
  1
_D_7
  0
SOLID
  5
18F
330
18C
100
AcDbEntity
  8
0
  6
Continuous
 62
     7
370
     0
100
AcDbTrace
 10
116.7089122655
 20
66.639419031
 30
0.0
 11
119.3145281488
 21
64.5484781259
 31
0.0
 12
119.8225281488
 22
65.4283599361
 32
0.0
 13
119.8225281488
 23
65.4283599361
 33
0.0
  0
LINE
  5
190
330
18C
100
AcDbEntity
  8
0
  6
Continuous
 62
     7
370
     0
100
AcDbLine
 10
116.7089122655
 20
66.639419031
 30
0.0
 11
133.8876106531
 21
56.7212928926
 31
0.0
  0
LINE
  5
191
330
18C
100
AcDbEntity
  8
0
  6
Continuous
 62
     7
370
     0
100
AcDbLine
 10
116.7089122655
 20
66.639419031
 30
0.0
 11
112.3787852466
 21
69.139419031
 31
0.0
  0
MTEXT
  5
192
330
18C
100
AcDbEntity
  8
0
  6
Continuous
 62
     7
370
     0
100
AcDbMText
 10
131.4388430989
 20
63.3201811917
 30
0.0
 40
3.5
 41
0.0
 71
     1
 72
     1
  1
R5
  7
SLDTEXTSTYLE0
 11
0.866025403784445
 21
-0.4999999999999889
 31
0.0
 73
     1
 44
1.0
  0
ENDBLK
  5
18E
330
18C
100
AcDbEntity
  8
0
100
AcDbBlockEnd
  0
BLOCK
  5
196
330
195
100
AcDbEntity
  8
0
100
AcDbBlockBegin
  2
_D_8
 70
     0
 10
0.0
 20
0.0
 30
0.0
  3
_D_8
  1
_D_8
  0
SOLID
  5
198
330
195
100
AcDbEntity
  8
0
  6
Continuous
 62
     7
370
     0
100
AcDbTrace
 10
82.6787852466
 20
57.9907872768
 30
0.0
 11
79.3767852466
 21
58.4987872768
 31
0.0
 12
79.3767852466
 22
57.4827872768
 32
0.0
 13
79.3767852466
 23
57.4827872768
 33
0.0
  0
SOLID
  5
199
330
195
100
AcDbEntity
  8
0
  6
Continuous
 62
     7
370
     0
100
AcDbTrace
 10
88.1787852466
 20
57.9907872768
 30
0.0
 11
91.4807852466
 21
57.4827872768
 31
0.0
 12
91.4807852466
 22
58.4987872768
 32
0.0
 13
91.4807852466
 23
58.4987872768
 33
0.0
  0
LINE
  5
19A
330
195
100
AcDbEntity
  8
0
  6
Continuous
 62
     7
370
     0
100
AcDbLine
 10
82.6787852466
 20
80.539419031
 30
0.0
 11
82.6787852466
 21
56.9907872768
 31
0.0
  0
LINE
  5
19B
330
195
100
AcDbEntity
  8
0
  6
Continuous
 62
     7
370
     0
100
AcDbLine
 10
88.1787852466
 20
76.639419031
 30
0.0
 11
88.1787852466
 21
56.9907872768
 31
0.0
  0
LINE
  5
19C
330
195
100
AcDbEntity
  8
0
  6
Continuous
 62
     7
370
     0
100
AcDbLine
 10
82.6787852466
 20
57.9907872768
 30
0.0
 11
74.3933967359
 21
57.9907872768
 31
0.0
  0
LINE
  5
19D
330
195
100
AcDbEntity
  8
0
  6
Continuous
 62
     7
370
     0
100
AcDbLine
 10
82.6787852466
 20
57.9907872768
 30
0.0
 11
88.1787852466
 21
57.9907872768
 31
0.0
  0
LINE
  5
19E
330
195
100
AcDbEntity
  8
0
  6
Continuous
 62
     7
370
     0
100
AcDbLine
 10
88.1787852466
 20
57.9907872768
 30
0.0
 11
94.5287852466
 21
57.9907872768
 31
0.0
  0
MTEXT
  5
19F
330
195
100
AcDbEntity
  8
0
  6
Continuous
 62
     7
370
     0
100
AcDbMText
 10
74.3933967359
 20
62.5025241914
 30
0.0
 40
3.5
 41
0.0
 71
     1
 72
     1
  1
5.5
  7
SLDTEXTSTYLE0
 73
     1
 44
1.0
  0
ENDBLK
  5
197
330
195
100
AcDbEntity
  8
0
100
AcDbBlockEnd
  0
BLOCK
  5
1A3
330
1A2
100
AcDbEntity
  8
0
100
AcDbBlockBegin
  2
_D_9
 70
     0
 10
0.0
 20
0.0
 30
0.0
  3
_D_9
  1
_D_9
  0
SOLID
  5
1A5
330
1A2
100
AcDbEntity
  8
0
  6
Continuous
 62
     7
370
     0
100
AcDbTrace
 10
82.946734439
 20
124.739419031
 30
0.0
 11
80.3411185558
 21
126.8303599361
 31
0.0
 12
79.8331185558
 22
125.9504781259
 32
0.0
 13
79.8331185558
 23
125.9504781259
 33
0.0
  0
LINE
  5
1A6
330
1A2
100
AcDbEntity
  8
0
  6
Continuous
 62
     7
370
     0
100
AcDbLine
 10
82.946734439
 20
124.739419031
 30
0.0
 11
71.0822375382
 21
131.5893895105
 31
0.0
  0
MTEXT
  5
1A7
330
1A2
100
AcDbEntity
  8
0
  6
Continuous
 62
     7
370
     0
100
AcDbMText
 10
73.3086369442
 20
135.4456263996
 30
0.0
 40
3.5
 41
0.0
 71
     1
 72
     1
  1
R2
  7
SLDTEXTSTYLE0
 11
0.8660254037844385
 21
-0.5000000000000002
 31
0.0
 73
     1
 44
1.0
  0
ENDBLK
  5
1A4
330
1A2
100
AcDbEntity
  8
0
100
AcDbBlockEnd
  0
BLOCK
  5
1AA
330
1A9
100
AcDbEntity
  8
0
100
AcDbBlockBegin
  2
_D_10
 70
     0
 10
0.0
 20
0.0
 30
0.0
  3
_D_10
  1
_D_10
  0
SOLID
  5
1AC
330
1A9
100
AcDbEntity
  8
0
  6
Continuous
 62
     7
370
     0
100
AcDbTrace
 10
69.7875750471
 20
127.639419031
 30
0.0
 11
69.2795750471
 21
124.337419031
 31
0.0
 12
70.2955750471
 22
124.337419031
 32
0.0
 13
70.2955750471
 23
124.337419031
 33
0.0
  0
SOLID
  5
1AD
330
1A9
100
AcDbEntity
  8
0
  6
Continuous
 62
     7
370
     0
100
AcDbTrace
 10
69.7875750471
 20
77.639419031
 30
0.0
 11
70.2955750471
 21
80.941419031
 31
0.0
 12
69.2795750471
 22
80.941419031
 32
0.0
 13
69.2795750471
 23
80.941419031
 33
0.0
  0
LINE
  5
1AE
330
1A9
100
AcDbEntity
  8
0
  6
Continuous
 62
     7
370
     0
100
AcDbLine
 10
87.1787852466
 20
127.639419031
 30
0.0
 11
68.7875750471
 21
127.639419031
 31
0.0
  0
LINE
  5
1AF
330
1A9
100
AcDbEntity
  8
0
  6
Continuous
 62
     7
370
     0
100
AcDbLine
 10
87.1787852466
 20
77.639419031
 30
0.0
 11
68.7875750471
 21
77.639419031
 31
0.0
  0
LINE
  5
1B0
330
1A9
100
AcDbEntity
  8
0
  6
Continuous
 62
     7
370
     0
100
AcDbLine
 10
69.7875750471
 20
127.639419031
 30
0.0
 11
69.7875750471
 21
77.639419031
 31
0.0
  0
MTEXT
  5
1B1
330
1A9
100
AcDbEntity
  8
0
  6
Continuous
 62
     7
370
     0
100
AcDbMText
 10
65.2758381325
 20
100.0533078375
 30
0.0
 40
3.5
 41
0.0
 71
     1
 72
     1
  1
50
  7
SLDTEXTSTYLE0
 11
-7.044195017643634E-15
 21
1.0
 31
0.0
 73
     1
 44
1.0
  0
ENDBLK
  5
1AB
330
1A9
100
AcDbEntity
  8
0
100
AcDbBlockEnd
  0
BLOCK
  5
1B4
330
1B3
100
AcDbEntity
  8
0
100
AcDbBlockBegin
  2
_D_11
 70
     0
 10
0.0
 20
0.0
 30
0.0
  3
_D_11
  1
_D_11
  0
SOLID
  5
1B6
330
1B3
100
AcDbEntity
  8
0
  6
Continuous
 62
     7
370
     0
100
AcDbTrace
 10
77.6260355532
 20
79.539419031
 30
0.0
 11
78.1340355532
 21
82.841419031
 31
0.0
 12
77.1180355532
 22
82.841419031
 32
0.0
 13
77.1180355532
 23
82.841419031
 33
0.0
  0
SOLID
  5
1B7
330
1B3
100
AcDbEntity
  8
0
  6
Continuous
 62
     7
370
     0
100
AcDbTrace
 10
77.6260355532
 20
75.739419031
 30
0.0
 11
77.1180355532
 21
72.437419031
 31
0.0
 12
78.1340355532
 22
72.437419031
 32
0.0
 13
78.1340355532
 23
72.437419031
 33
0.0
  0
LINE
  5
1B8
330
1B3
100
AcDbEntity
  8
0
  6
Continuous
 62
     7
370
     0
100
AcDbLine
 10
83.6787852466
 20
79.539419031
 30
0.0
 11
76.6260355532
 21
79.539419031
 31
0.0
  0
LINE
  5
1B9
330
1B3
100
AcDbEntity
  8
0
  6
Continuous
 62
     7
370
     0
100
AcDbLine
 10
83.6787852466
 20
75.739419031
 30
0.0
 11
76.6260355532
 21
75.739419031
 31
0.0
  0
LINE
  5
1BA
330
1B3
100
AcDbEntity
  8
0
  6
Continuous
 62
     7
370
     0
100
AcDbLine
 10
77.6260355532
 20
79.539419031
 30
0.0
 11
77.6260355532
 21
90.0126697144
 31
0.0
  0
LINE
  5
1BB
330
1B3
100
AcDbEntity
  8
0
  6
Continuous
 62
     7
370
     0
100
AcDbLine
 10
77.6260355532
 20
79.539419031
 30
0.0
 11
77.6260355532
 21
75.739419031
 31
0.0
  0
LINE
  5
1BC
330
1B3
100
AcDbEntity
  8
0
  6
Continuous
 62
     7
370
     0
100
AcDbLine
 10
77.6260355532
 20
75.739419031
 30
0.0
 11
77.6260355532
 21
69.389419031
 31
0.0
  0
MTEXT
  5
1BD
330
1B3
100
AcDbEntity
  8
0
  6
Continuous
 62
     7
370
     0
100
AcDbMText
 10
73.1142986386
 20
83.5473920799
 30
0.0
 40
3.5
 41
0.0
 71
     1
 72
     1
  1
3.8
  7
SLDTEXTSTYLE0
 11
-7.044195017643634E-15
 21
1.0
 31
0.0
 73
     1
 44
1.0
  0
ENDBLK
  5
1B5
330
1B3
100
AcDbEntity
  8
0
100
AcDbBlockEnd
  0
BLOCK
  5
1C1
330
1C0
100
AcDbEntity
  8
0
100
AcDbBlockBegin
  2
_D_12
 70
     0
 10
0.0
 20
0.0
 30
0.0
  3
_D_12
  1
_D_12
  0
SOLID
  5
1C3
330
1C0
100
AcDbEntity
  8
0
  6
Continuous
 62
     7
370
     0
100
AcDbTrace
 10
82.6787852466
 20
147.9239013268
 30
0.0
 11
85.9807852466
 21
147.4159013268
 31
0.0
 12
85.9807852466
 22
148.4319013268
 32
0.0
 13
85.9807852466
 23
148.4319013268
 33
0.0
  0
SOLID
  5
1C4
330
1C0
100
AcDbEntity
  8
0
  6
Continuous
 62
     7
370
     0
100
AcDbTrace
 10
107.1787852466
 20
147.9239013268
 30
0.0
 11
103.8767852466
 21
148.4319013268
 31
0.0
 12
103.8767852466
 22
147.4159013268
 32
0.0
 13
103.8767852466
 23
147.4159013268
 33
0.0
  0
LINE
  5
1C5
330
1C0
100
AcDbEntity
  8
0
  6
Continuous
 62
     7
370
     0
100
AcDbLine
 10
82.6787852466
 20
137.139419031
 30
0.0
 11
82.6787852466
 21
148.9239013268
 31
0.0
  0
LINE
  5
1C6
330
1C0
100
AcDbEntity
  8
0
  6
Continuous
 62
     7
370
     0
100
AcDbLine
 10
107.1787852466
 20
136.639419031
 30
0.0
 11
107.1787852466
 21
148.9239013268
 31
0.0
  0
LINE
  5
1C7
330
1C0
100
AcDbEntity
  8
0
  6
Continuous
 62
     7
370
     0
100
AcDbLine
 10
82.6787852466
 20
147.9239013268
 30
0.0
 11
107.1787852466
 21
147.9239013268
 31
0.0
  0
MTEXT
  5
1C8
330
1C0
100
AcDbEntity
  8
0
  6
Continuous
 62
     7
370
     0
100
AcDbMText
 10
89.110035003
 20
152.4356382413
 30
0.0
 40
3.5
 41
0.0
 71
     1
 72
     1
  1
24.50
  7
SLDTEXTSTYLE0
 73
     1
 44
1.0
  0
ENDBLK
  5
1C2
330
1C0
100
AcDbEntity
  8
0
100
AcDbBlockEnd
  0
BLOCK
  5
1CB
330
1CA
100
AcDbEntity
  8
0
100
AcDbBlockBegin
  2
_D_13
 70
     0
 10
0.0
 20
0.0
 30
0.0
  3
_D_13
  1
_D_13
  0
SOLID
  5
1CD
330
1CA
100
AcDbEntity
  8
0
  6
Continuous
 62
     7
370
     0
100
AcDbTrace
 10
107.1787852466
 20
143.7427571572
 30
0.0
 11
103.8767852466
 21
144.2507571572
 31
0.0
 12
103.8767852466
 22
143.2347571572
 32
0.0
 13
103.8767852466
 23
143.2347571572
 33
0.0
  0
SOLID
  5
1CE
330
1CA
100
AcDbEntity
  8
0
  6
Continuous
 62
     7
370
     0
100
AcDbTrace
 10
111.1787852466
 20
143.7427571572
 30
0.0
 11
114.4807852466
 21
143.2347571572
 31
0.0
 12
114.4807852466
 22
144.2507571572
 32
0.0
 13
114.4807852466
 23
144.2507571572
 33
0.0
  0
LINE
  5
1CF
330
1CA
100
AcDbEntity
  8
0
  6
Continuous
 62
     7
370
     0
100
AcDbLine
 10
107.1787852466
 20
136.639419031
 30
0.0
 11
107.1787852466
 21
144.7427571572
 31
0.0
  0
LINE
  5
1D0
330
1CA
100
AcDbEntity
  8
0
  6
Continuous
 62
     7
370
     0
100
AcDbLine
 10
111.1787852466
 20
116.739419031
 30
0.0
 11
111.1787852466
 21
144.7427571572
 31
0.0
  0
LINE
  5
1D1
330
1CA
100
AcDbEntity
  8
0
  6
Continuous
 62
     7
370
     0
100
AcDbLine
 10
107.1787852466
 20
143.7427571572
 30
0.0
 11
100.8287852466
 21
143.7427571572
 31
0.0
  0
LINE
  5
1D2
330
1CA
100
AcDbEntity
  8
0
  6
Continuous
 62
     7
370
     0
100
AcDbLine
 10
107.1787852466
 20
143.7427571572
 30
0.0
 11
111.1787852466
 21
143.7427571572
 31
0.0
  0
LINE
  5
1D3
330
1CA
100
AcDbEntity
  8
0
  6
Continuous
 62
     7
370
     0
100
AcDbLine
 10
111.1787852466
 20
143.7427571572
 30
0.0
 11
117.5287852466
 21
143.7427571572
 31
0.0
  0
MTEXT
  5
1D4
330
1CA
100
AcDbEntity
  8
0
  6
Continuous
 62
     7
370
     0
100
AcDbMText
 10
107.8635514989
 20
148.2544940718
 30
0.0
 40
3.5
 41
0.0
 71
     1
 72
     1
  1
4
  7
SLDTEXTSTYLE0
 73
     1
 44
1.0
  0
ENDBLK
  5
1CC
330
1CA
100
AcDbEntity
  8
0
100
AcDbBlockEnd
  0
BLOCK
  5
1D7
330
1D6
100
AcDbEntity
  8
0
100
AcDbBlockBegin
  2
_D_14
 70
     0
 10
0.0
 20
0.0
 30
0.0
  3
_D_14
  1
_D_14
  0
SOLID
  5
1D9
330
1D6
100
AcDbEntity
  8
0
  6
Continuous
 62
     7
370
     0
100
AcDbTrace
 10
83.3486582277
 20
138.639419031
 30
0.0
 11
80.7430423444
 21
140.7303599361
 31
0.0
 12
80.2350423444
 22
139.8504781259
 32
0.0
 13
80.2350423444
 23
139.8504781259
 33
0.0
  0
LINE
  5
1DA
330
1D6
100
AcDbEntity
  8
0
  6
Continuous
 62
     7
370
     0
100
AcDbLine
 10
83.3486582277
 20
138.639419031
 30
0.0
 11
59.2796275009
 21
152.5356804002
 31
0.0
  0
LINE
  5
1DB
330
1D6
100
AcDbEntity
  8
0
  6
Continuous
 62
     7
370
     0
100
AcDbLine
 10
83.3486582277
 20
138.639419031
 30
0.0
 11
87.6787852466
 21
136.139419031
 31
0.0
  0
MTEXT
  5
1DC
330
1D6
100
AcDbEntity
  8
0
  6
Continuous
 62
     7
370
     0
100
AcDbMText
 10
61.5296592576
 20
156.4328497214
 30
0.0
 40
3.5
 41
0.0
 71
     1
 72
     1
  1
R5
  7
SLDTEXTSTYLE0
 11
0.8660254037844385
 21
-0.5000000000000002
 31
0.0
 73
     1
 44
1.0
  0
ENDBLK
  5
1D8
330
1D6
100
AcDbEntity
  8
0
100
AcDbBlockEnd
  0
BLOCK
  5
1DE
330
1DD
100
AcDbEntity
  8
0
100
AcDbBlockBegin
  2
SW_CENTERMARKSYMBOL_0
 70
     0
 10
0.0
 20
0.0
 30
0.0
  3
SW_CENTERMARKSYMBOL_0
  1
SW_CENTERMARKSYMBOL_0
  0
LINE
  5
1E0
330
1DD
100
AcDbEntity
  8
0
  6
Continuous
 62
     0
370
     0
100
AcDbLine
 10
0.0
 20
0.0
 30
0.0
 11
0.0
 21
2.5
 31
0.0
  0
LINE
  5
1E1
330
1DD
100
AcDbEntity
  8
0
  6
Continuous
 62
     0
370
     0
100
AcDbLine
 10
0.0
 20
0.0
 30
0.0
 11
-2.5
 21
0.0
 31
0.0
  0
LINE
  5
1E2
330
1DD
100
AcDbEntity
  8
0
  6
Continuous
 62
     0
370
     0
100
AcDbLine
 10
0.0
 20
0.0
 30
0.0
 11
0.0
 21
-2.5
 31
0.0
  0
LINE
  5
1E3
330
1DD
100
AcDbEntity
  8
0
  6
Continuous
 62
     0
370
     0
100
AcDbLine
 10
0.0
 20
0.0
 30
0.0
 11
2.5
 21
0.0
 31
0.0
  0
LINE
  5
1E4
330
1DD
100
AcDbEntity
  8
0
  6
Continuous
 62
     0
370
     0
100
AcDbLine
 10
0.0
 20
2.5
 30
0.0
 11
0.0
 21
4.1
 31
0.0
  0
LINE
  5
1E5
330
1DD
100
AcDbEntity
  8
0
  6
Continuous
 62
     0
370
     0
100
AcDbLine
 10
-2.5
 20
0.0
 30
0.0
 11
-4.1
 21
0.0
 31
0.0
  0
LINE
  5
1E6
330
1DD
100
AcDbEntity
  8
0
  6
Continuous
 62
     0
370
     0
100
AcDbLine
 10
0.0
 20
-2.5
 30
0.0
 11
0.0
 21
-4.1
 31
0.0
  0
LINE
  5
1E7
330
1DD
100
AcDbEntity
  8
0
  6
Continuous
 62
     0
370
     0
100
AcDbLine
 10
2.5
 20
0.0
 30
0.0
 11
4.1
 21
0.0
 31
0.0
  0
ENDBLK
  5
1DF
330
1DD
100
AcDbEntity
  8
0
100
AcDbBlockEnd
  0
BLOCK
  5
1EA
330
1E9
100
AcDbEntity
  8
0
100
AcDbBlockBegin
  2
SW_CENTERMARKSYMBOL_1
 70
     0
 10
0.0
 20
0.0
 30
0.0
  3
SW_CENTERMARKSYMBOL_1
  1
SW_CENTERMARKSYMBOL_1
  0
LINE
  5
1EC
330
1E9
100
AcDbEntity
  8
0
  6
Continuous
 62
     0
370
     0
100
AcDbLine
 10
0.0
 20
0.0
 30
0.0
 11
0.0
 21
2.5
 31
0.0
  0
LINE
  5
1ED
330
1E9
100
AcDbEntity
  8
0
  6
Continuous
 62
     0
370
     0
100
AcDbLine
 10
0.0
 20
0.0
 30
0.0
 11
-2.5
 21
0.0
 31
0.0
  0
LINE
  5
1EE
330
1E9
100
AcDbEntity
  8
0
  6
Continuous
 62
     0
370
     0
100
AcDbLine
 10
0.0
 20
0.0
 30
0.0
 11
0.0
 21
-2.5
 31
0.0
  0
LINE
  5
1EF
330
1E9
100
AcDbEntity
  8
0
  6
Continuous
 62
     0
370
     0
100
AcDbLine
 10
0.0
 20
0.0
 30
0.0
 11
2.5
 21
0.0
 31
0.0
  0
LINE
  5
1F0
330
1E9
100
AcDbEntity
  8
0
  6
Continuous
 62
     0
370
     0
100
AcDbLine
 10
0.0
 20
2.5
 30
0.0
 11
0.0
 21
4.1
 31
0.0
  0
LINE
  5
1F1
330
1E9
100
AcDbEntity
  8
0
  6
Continuous
 62
     0
370
     0
100
AcDbLine
 10
-2.5
 20
0.0
 30
0.0
 11
-4.1
 21
0.0
 31
0.0
  0
LINE
  5
1F2
330
1E9
100
AcDbEntity
  8
0
  6
Continuous
 62
     0
370
     0
100
AcDbLine
 10
0.0
 20
-2.5
 30
0.0
 11
0.0
 21
-4.1
 31
0.0
  0
LINE
  5
1F3
330
1E9
100
AcDbEntity
  8
0
  6
Continuous
 62
     0
370
     0
100
AcDbLine
 10
2.5
 20
0.0
 30
0.0
 11
4.1
 21
0.0
 31
0.0
  0
ENDBLK
  5
1EB
330
1E9
100
AcDbEntity
  8
0
100
AcDbBlockEnd
  0
BLOCK
  5
1F6
330
1F5
100
AcDbEntity
  8
0
100
AcDbBlockBegin
  2
SW_CENTERMARKSYMBOL_2
 70
     0
 10
0.0
 20
0.0
 30
0.0
  3
SW_CENTERMARKSYMBOL_2
  1
SW_CENTERMARKSYMBOL_2
  0
LINE
  5
1F8
330
1F5
100
AcDbEntity
  8
0
  6
Continuous
 62
     0
370
     0
100
AcDbLine
 10
0.0
 20
0.0
 30
0.0
 11
0.0
 21
2.5
 31
0.0
  0
LINE
  5
1F9
330
1F5
100
AcDbEntity
  8
0
  6
Continuous
 62
     0
370
     0
100
AcDbLine
 10
0.0
 20
0.0
 30
0.0
 11
-2.5
 21
0.0
 31
0.0
  0
LINE
  5
1FA
330
1F5
100
AcDbEntity
  8
0
  6
Continuous
 62
     0
370
     0
100
AcDbLine
 10
0.0
 20
0.0
 30
0.0
 11
0.0
 21
-2.5
 31
0.0
  0
LINE
  5
1FB
330
1F5
100
AcDbEntity
  8
0
  6
Continuous
 62
     0
370
     0
100
AcDbLine
 10
0.0
 20
0.0
 30
0.0
 11
2.5
 21
0.0
 31
0.0
  0
LINE
  5
1FC
330
1F5
100
AcDbEntity
  8
0
  6
Continuous
 62
     0
370
     0
100
AcDbLine
 10
0.0
 20
5.0
 30
0.0
 11
0.0
 21
9.0
 31
0.0
  0
LINE
  5
1FD
330
1F5
100
AcDbEntity
  8
0
  6
Continuous
 62
     0
370
     0
100
AcDbLine
 10
-5.0
 20
0.0
 30
0.0
 11
-9.0
 21
0.0
 31
0.0
  0
LINE
  5
1FE
330
1F5
100
AcDbEntity
  8
0
  6
Continuous
 62
     0
370
     0
100
AcDbLine
 10
0.0
 20
-5.0
 30
0.0
 11
0.0
 21
-9.0
 31
0.0
  0
LINE
  5
1FF
330
1F5
100
AcDbEntity
  8
0
  6
Continuous
 62
     0
370
     0
100
AcDbLine
 10
5.0
 20
0.0
 30
0.0
 11
9.0
 21
0.0
 31
0.0
  0
ENDBLK
  5
1F7
330
1F5
100
AcDbEntity
  8
0
100
AcDbBlockEnd
  0
BLOCK
  5
202
330
201
100
AcDbEntity
  8
0
100
AcDbBlockBegin
  2
SW_CENTERMARKSYMBOL_3
 70
     0
 10
0.0
 20
0.0
 30
0.0
  3
SW_CENTERMARKSYMBOL_3
  1
SW_CENTERMARKSYMBOL_3
  0
LINE
  5
204
330
201
100
AcDbEntity
  8
0
  6
Continuous
 62
     0
370
     0
100
AcDbLine
 10
0.0
 20
0.0
 30
0.0
 11
0.0
 21
2.5
 31
0.0
  0
LINE
  5
205
330
201
100
AcDbEntity
  8
0
  6
Continuous
 62
     0
370
     0
100
AcDbLine
 10
0.0
 20
0.0
 30
0.0
 11
-2.5
 21
0.0
 31
0.0
  0
LINE
  5
206
330
201
100
AcDbEntity
  8
0
  6
Continuous
 62
     0
370
     0
100
AcDbLine
 10
0.0
 20
0.0
 30
0.0
 11
0.0
 21
-2.5
 31
0.0
  0
LINE
  5
207
330
201
100
AcDbEntity
  8
0
  6
Continuous
 62
     0
370
     0
100
AcDbLine
 10
0.0
 20
0.0
 30
0.0
 11
2.5
 21
0.0
 31
0.0
  0
LINE
  5
208
330
201
100
AcDbEntity
  8
0
  6
Continuous
 62
     0
370
     0
100
AcDbLine
 10
0.0
 20
5.0
 30
0.0
 11
0.0
 21
9.0
 31
0.0
  0
LINE
  5
209
330
201
100
AcDbEntity
  8
0
  6
Continuous
 62
     0
370
     0
100
AcDbLine
 10
-5.0
 20
0.0
 30
0.0
 11
-9.0
 21
0.0
 31
0.0
  0
LINE
  5
20A
330
201
100
AcDbEntity
  8
0
  6
Continuous
 62
     0
370
     0
100
AcDbLine
 10
0.0
 20
-5.0
 30
0.0
 11
0.0
 21
-9.0
 31
0.0
  0
LINE
  5
20B
330
201
100
AcDbEntity
  8
0
  6
Continuous
 62
     0
370
     0
100
AcDbLine
 10
5.0
 20
0.0
 30
0.0
 11
9.0
 21
0.0
 31
0.0
  0
ENDBLK
  5
203
330
201
100
AcDbEntity
  8
0
100
AcDbBlockEnd
  0
BLOCK
  5
20E
330
20D
100
AcDbEntity
  8
0
100
AcDbBlockBegin
  2
SW_CENTERMARKSYMBOL_4
 70
     0
 10
0.0
 20
0.0
 30
0.0
  3
SW_CENTERMARKSYMBOL_4
  1
SW_CENTERMARKSYMBOL_4
  0
LINE
  5
210
330
20D
100
AcDbEntity
  8
0
  6
Continuous
 62
     0
370
     0
100
AcDbLine
 10
0.0
 20
0.0
 30
0.0
 11
0.0
 21
2.5
 31
0.0
  0
LINE
  5
211
330
20D
100
AcDbEntity
  8
0
  6
Continuous
 62
     0
370
     0
100
AcDbLine
 10
0.0
 20
0.0
 30
0.0
 11
-2.5
 21
0.0
 31
0.0
  0
LINE
  5
212
330
20D
100
AcDbEntity
  8
0
  6
Continuous
 62
     0
370
     0
100
AcDbLine
 10
0.0
 20
0.0
 30
0.0
 11
0.0
 21
-2.5
 31
0.0
  0
LINE
  5
213
330
20D
100
AcDbEntity
  8
0
  6
Continuous
 62
     0
370
     0
100
AcDbLine
 10
0.0
 20
0.0
 30
0.0
 11
2.5
 21
0.0
 31
0.0
  0
LINE
  5
214
330
20D
100
AcDbEntity
  8
0
  6
Continuous
 62
     0
370
     0
100
AcDbLine
 10
0.0
 20
2.5
 30
0.0
 11
0.0
 21
4.1
 31
0.0
  0
LINE
  5
215
330
20D
100
AcDbEntity
  8
0
  6
Continuous
 62
     0
370
     0
100
AcDbLine
 10
-2.5
 20
0.0
 30
0.0
 11
-4.1
 21
0.0
 31
0.0
  0
LINE
  5
216
330
20D
100
AcDbEntity
  8
0
  6
Continuous
 62
     0
370
     0
100
AcDbLine
 10
0.0
 20
-2.5
 30
0.0
 11
0.0
 21
-4.1
 31
0.0
  0
LINE
  5
217
330
20D
100
AcDbEntity
  8
0
  6
Continuous
 62
     0
370
     0
100
AcDbLine
 10
2.5
 20
0.0
 30
0.0
 11
4.1
 21
0.0
 31
0.0
  0
ENDBLK
  5
20F
330
20D
100
AcDbEntity
  8
0
100
AcDbBlockEnd
  0
BLOCK
  5
21A
330
219
100
AcDbEntity
  8
0
100
AcDbBlockBegin
  2
SW_CENTERMARKSYMBOL_5
 70
     0
 10
0.0
 20
0.0
 30
0.0
  3
SW_CENTERMARKSYMBOL_5
  1
SW_CENTERMARKSYMBOL_5
  0
LINE
  5
21C
330
219
100
AcDbEntity
  8
0
  6
Continuous
 62
     0
370
     0
100
AcDbLine
 10
0.0
 20
0.0
 30
0.0
 11
0.0
 21
2.5
 31
0.0
  0
LINE
  5
21D
330
219
100
AcDbEntity
  8
0
  6
Continuous
 62
     0
370
     0
100
AcDbLine
 10
0.0
 20
0.0
 30
0.0
 11
-2.5
 21
0.0
 31
0.0
  0
LINE
  5
21E
330
219
100
AcDbEntity
  8
0
  6
Continuous
 62
     0
370
     0
100
AcDbLine
 10
0.0
 20
0.0
 30
0.0
 11
0.0
 21
-2.5
 31
0.0
  0
LINE
  5
21F
330
219
100
AcDbEntity
  8
0
  6
Continuous
 62
     0
370
     0
100
AcDbLine
 10
0.0
 20
0.0
 30
0.0
 11
2.5
 21
0.0
 31
0.0
  0
LINE
  5
220
330
219
100
AcDbEntity
  8
0
  6
Continuous
 62
     0
370
     0
100
AcDbLine
 10
0.0
 20
2.5
 30
0.0
 11
0.0
 21
4.1
 31
0.0
  0
LINE
  5
221
330
219
100
AcDbEntity
  8
0
  6
Continuous
 62
     0
370
     0
100
AcDbLine
 10
-2.5
 20
0.0
 30
0.0
 11
-4.1
 21
0.0
 31
0.0
  0
LINE
  5
222
330
219
100
AcDbEntity
  8
0
  6
Continuous
 62
     0
370
     0
100
AcDbLine
 10
0.0
 20
-2.5
 30
0.0
 11
0.0
 21
-4.1
 31
0.0
  0
LINE
  5
223
330
219
100
AcDbEntity
  8
0
  6
Continuous
 62
     0
370
     0
100
AcDbLine
 10
2.5
 20
0.0
 30
0.0
 11
4.1
 21
0.0
 31
0.0
  0
ENDBLK
  5
21B
330
219
100
AcDbEntity
  8
0
100
AcDbBlockEnd
  0
BLOCK
  5
23D
330
23C
100
AcDbEntity
  8
0
100
AcDbBlockBegin
  2
_D_15
 70
     0
 10
0.0
 20
0.0
 30
0.0
  3
_D_15
  1
_D_15
  0
SOLID
  5
23F
330
23C
100
AcDbEntity
  8
0
  6
Continuous
 62
     7
370
     0
100
AcDbTrace
 10
72.6787852466
 20
171.1686334941
 30
0.0
 11
72.1707852466
 21
167.8666334941
 31
0.0
 12
73.1867852466
 22
167.8666334941
 32
0.0
 13
73.1867852466
 23
167.8666334941
 33
0.0
  0
SOLID
  5
240
330
23C
100
AcDbEntity
  8
0
  6
Continuous
 62
     7
370
     0
100
AcDbTrace
 10
72.6787852466
 20
175.0686334941
 30
0.0
 11
73.1867852466
 21
178.3706334941
 31
0.0
 12
72.1707852466
 22
178.3706334941
 32
0.0
 13
72.1707852466
 23
178.3706334941
 33
0.0
  0
LINE
  5
241
330
23C
100
AcDbEntity
  8
0
  6
Continuous
 62
     7
370
     0
100
AcDbLine
 10
96.6153852466
 20
171.1686334941
 30
0.0
 11
71.6787852466
 21
171.1686334941
 31
0.0
  0
LINE
  5
242
330
23C
100
AcDbEntity
  8
0
  6
Continuous
 62
     7
370
     0
100
AcDbLine
 10
81.6787852466
 20
175.0686334941
 30
0.0
 11
71.6787852466
 21
175.0686334941
 31
0.0
  0
LINE
  5
243
330
23C
100
AcDbEntity
  8
0
  6
Continuous
 62
     7
370
     0
100
AcDbLine
 10
72.6787852466
 20
171.1686334941
 30
0.0
 11
72.6787852466
 21
164.8186334941
 31
0.0
  0
LINE
  5
244
330
23C
100
AcDbEntity
  8
0
  6
Continuous
 62
     7
370
     0
100
AcDbLine
 10
72.6787852466
 20
171.1686334941
 30
0.0
 11
72.6787852466
 21
175.0686334941
 31
0.0
  0
LINE
  5
245
330
23C
100
AcDbEntity
  8
0
  6
Continuous
 62
     7
370
     0
100
AcDbLine
 10
72.6787852466
 20
175.0686334941
 30
0.0
 11
72.6787852466
 21
186.8695622233
 31
0.0
  0
MTEXT
  5
246
330
23C
100
AcDbEntity
  8
0
  6
Continuous
 62
     7
370
     0
100
AcDbMText
 10
68.167048332
 20
180.4042845887
 30
0.0
 40
3.5
 41
0.0
 71
     1
 72
     1
  1
3.9
  7
SLDTEXTSTYLE0
 11
-8.269460797427576E-16
 21
1.0
 31
0.0
 73
     1
 44
1.0
  0
ENDBLK
  5
23E
330
23C
100
AcDbEntity
  8
0
100
AcDbBlockEnd
  0
BLOCK
  5
24A
330
249
100
AcDbEntity
  8
0
100
AcDbBlockBegin
  2
_D_16
 70
     0
 10
0.0
 20
0.0
 30
0.0
  3
_D_16
  1
_D_16
  0
SOLID
  5
24C
330
249
100
AcDbEntity
  8
0
  6
Continuous
 62
     7
370
     0
100
AcDbTrace
 10
127.3787852466
 20
172.3686334941
 30
0.0
 11
127.8867852466
 21
175.6706334941
 31
0.0
 12
126.8707852466
 22
175.6706334941
 32
0.0
 13
126.8707852466
 23
175.6706334941
 33
0.0
  0
SOLID
  5
24D
330
249
100
AcDbEntity
  8
0
  6
Continuous
 62
     7
370
     0
100
AcDbTrace
 10
127.3787852466
 20
171.1686334941
 30
0.0
 11
126.8707852466
 21
167.8666334941
 31
0.0
 12
127.8867852466
 22
167.8666334941
 32
0.0
 13
127.8867852466
 23
167.8666334941
 33
0.0
  0
LINE
  5
24E
330
249
100
AcDbEntity
  8
0
  6
Continuous
 62
     7
370
     0
100
AcDbLine
 10
118.3787852466
 20
172.3686334941
 30
0.0
 11
128.3787852466
 21
172.3686334941
 31
0.0
  0
LINE
  5
24F
330
249
100
AcDbEntity
  8
0
  6
Continuous
 62
     7
370
     0
100
AcDbLine
 10
118.3787852466
 20
171.1686334941
 30
0.0
 11
128.3787852466
 21
171.1686334941
 31
0.0
  0
LINE
  5
250
330
249
100
AcDbEntity
  8
0
  6
Continuous
 62
     7
370
     0
100
AcDbLine
 10
127.3787852466
 20
172.3686334941
 30
0.0
 11
127.3787852466
 21
185.3118159224
 31
0.0
  0
LINE
  5
251
330
249
100
AcDbEntity
  8
0
  6
Continuous
 62
     7
370
     0
100
AcDbLine
 10
127.3787852466
 20
172.3686334941
 30
0.0
 11
127.3787852466
 21
171.1686334941
 31
0.0
  0
LINE
  5
252
330
249
100
AcDbEntity
  8
0
  6
Continuous
 62
     7
370
     0
100
AcDbLine
 10
127.3787852466
 20
171.1686334941
 30
0.0
 11
127.3787852466
 21
164.8186334941
 31
0.0
  0
MTEXT
  5
253
330
249
100
AcDbEntity
  8
0
  6
Continuous
 62
     7
370
     0
100
AcDbMText
 10
122.867048332
 20
173.1444543575
 30
0.0
 40
3.5
 41
0.0
 71
     1
 72
     1
  1
t=
  7
SLDTEXTSTYLE0
 11
-7.932373437343760E-15
 21
1.0
 31
0.0
 73
     1
 44
1.0
  0
MTEXT
  5
254
330
249
100
AcDbEntity
  8
0
  6
Continuous
 62
     7
370
     0
100
AcDbMText
 10
122.867048332
 20
178.8465378222
 30
0.0
 40
3.5
 41
0.0
 71
     1
 72
     1
  1
1.2
  7
SLDTEXTSTYLE0
 11
-7.932373437343760E-15
 21
1.0
 31
0.0
 73
     1
 44
1.0
  0
ENDBLK
  5
24B
330
249
100
AcDbEntity
  8
0
100
AcDbBlockEnd
  0
BLOCK
  5
257
330
256
100
AcDbEntity
  8
0
100
AcDbBlockBegin
  2
_D_17
 70
     0
 10
0.0
 20
0.0
 30
0.0
  3
_D_17
  1
_D_17
  0
SOLID
  5
259
330
256
100
AcDbEntity
  8
0
  6
Continuous
 62
     7
370
     0
100
AcDbTrace
 10
96.8787852466
 20
185.0686334941
 30
0.0
 11
100.1807852466
 21
184.5606334941
 31
0.0
 12
100.1807852466
 22
185.5766334941
 32
0.0
 13
100.1807852466
 23
185.5766334941
 33
0.0
  0
SOLID
  5
25A
330
256
100
AcDbEntity
  8
0
  6
Continuous
 62
     7
370
     0
100
AcDbTrace
 10
82.6787852466
 20
185.0686334941
 30
0.0
 11
79.3767852466
 21
185.5766334941
 31
0.0
 12
79.3767852466
 22
184.5606334941
 32
0.0
 13
79.3767852466
 23
184.5606334941
 33
0.0
  0
LINE
  5
25B
330
256
100
AcDbEntity
  8
0
  6
Continuous
 62
     7
370
     0
100
AcDbLine
 10
96.8787852466
 20
174.1320334941
 30
0.0
 11
96.8787852466
 21
186.0686334941
 31
0.0
  0
LINE
  5
25C
330
256
100
AcDbEntity
  8
0
  6
Continuous
 62
     7
370
     0
100
AcDbLine
 10
82.6787852466
 20
176.0686334941
 30
0.0
 11
82.6787852466
 21
186.0686334941
 31
0.0
  0
LINE
  5
25D
330
256
100
AcDbEntity
  8
0
  6
Continuous
 62
     7
370
     0
100
AcDbLine
 10
96.8787852466
 20
185.0686334941
 30
0.0
 11
103.2287852466
 21
185.0686334941
 31
0.0
  0
LINE
  5
25E
330
256
100
AcDbEntity
  8
0
  6
Continuous
 62
     7
370
     0
100
AcDbLine
 10
96.8787852466
 20
185.0686334941
 30
0.0
 11
82.6787852466
 21
185.0686334941
 31
0.0
  0
LINE
  5
25F
330
256
100
AcDbEntity
  8
0
  6
Continuous
 62
     7
370
     0
100
AcDbLine
 10
82.6787852466
 20
185.0686334941
 30
0.0
 11
76.3287852466
 21
185.0686334941
 31
0.0
  0
MTEXT
  5
260
330
256
100
AcDbEntity
  8
0
  6
Continuous
 62
     7
370
     0
100
AcDbMText
 10
85.2530907162
 20
189.5803704086
 30
0.0
 40
3.5
 41
0.0
 71
     1
 72
     1
  1
14.2
  7
SLDTEXTSTYLE0
 73
     1
 44
1.0
  0
ENDBLK
  5
258
330
256
100
AcDbEntity
  8
0
100
AcDbBlockEnd
  0
BLOCK
  5
263
330
262
100
AcDbEntity
  8
0
100
AcDbBlockBegin
  2
_D_18
 70
     0
 10
0.0
 20
0.0
 30
0.0
  3
_D_18
  1
_D_18
  0
SOLID
  5
265
330
262
100
AcDbEntity
  8
0
  6
Continuous
 62
     7
370
     0
100
AcDbTrace
 10
96.8787852466
 20
185.0686334941
 30
0.0
 11
93.5767852466
 21
185.5766334941
 31
0.0
 12
93.5767852466
 22
184.5606334941
 32
0.0
 13
93.5767852466
 23
184.5606334941
 33
0.0
  0
SOLID
  5
266
330
262
100
AcDbEntity
  8
0
  6
Continuous
 62
     7
370
     0
100
AcDbTrace
 10
117.3787852466
 20
185.0686334941
 30
0.0
 11
120.6807852466
 21
184.5606334941
 31
0.0
 12
120.6807852466
 22
185.5766334941
 32
0.0
 13
120.6807852466
 23
185.5766334941
 33
0.0
  0
LINE
  5
267
330
262
100
AcDbEntity
  8
0
  6
Continuous
 62
     7
370
     0
100
AcDbLine
 10
96.8787852466
 20
174.1320334941
 30
0.0
 11
96.8787852466
 21
186.0686334941
 31
0.0
  0
LINE
  5
268
330
262
100
AcDbEntity
  8
0
  6
Continuous
 62
     7
370
     0
100
AcDbLine
 10
117.3787852466
 20
173.3686334941
 30
0.0
 11
117.3787852466
 21
186.0686334941
 31
0.0
  0
LINE
  5
269
330
262
100
AcDbEntity
  8
0
  6
Continuous
 62
     7
370
     0
100
AcDbLine
 10
96.8787852466
 20
185.0686334941
 30
0.0
 11
90.5287852466
 21
185.0686334941
 31
0.0
  0
LINE
  5
26A
330
262
100
AcDbEntity
  8
0
  6
Continuous
 62
     7
370
     0
100
AcDbLine
 10
96.8787852466
 20
185.0686334941
 30
0.0
 11
117.3787852466
 21
185.0686334941
 31
0.0
  0
LINE
  5
26B
330
262
100
AcDbEntity
  8
0
  6
Continuous
 62
     7
370
     0
100
AcDbLine
 10
117.3787852466
 20
185.0686334941
 30
0.0
 11
123.7287852466
 21
185.0686334941
 31
0.0
  0
MTEXT
  5
26C
330
262
100
AcDbEntity
  8
0
  6
Continuous
 62
     7
370
     0
100
AcDbMText
 10
102.6030907162
 20
189.5803704086
 30
0.0
 40
3.5
 41
0.0
 71
     1
 72
     1
  1
20.5
  7
SLDTEXTSTYLE0
 73
     1
 44
1.0
  0
ENDBLK
  5
264
330
262
100
AcDbEntity
  8
0
100
AcDbBlockEnd
  0
ENDSEC
  0
SECTION
  2
ENTITIES
  0
LINE
  5
D6
330
1F
100
AcDbEntity
  8
0
  6
Continuous
 62
     7
370
     0
100
AcDbLine
 10
159.432744824
 20
33.8601915079
 30
0.0
 11
287.0
 21
33.8601915079
 31
0.0
  0
LINE
  5
D7
330
1F
100
AcDbEntity
  8
0
  6
Continuous
 62
     7
370
     0
100
AcDbLine
 10
208.1941594269
 20
44.6102865927
 30
0.0
 11
208.1941594269
 21
10.0
 31
0.0
  0
LINE
  5
D8
330
1F
100
AcDbEntity
  8
0
  6
Continuous
 62
     7
370
     0
100
AcDbLine
 10
159.432744824
 20
44.6102865927
 30
0.0
 11
159.432744824
 21
10.0045890898
 31
0.0
  0
LINE
  5
D9
330
1F
100
AcDbEntity
  8
0
  6
Continuous
 62
     7
370
     0
100
AcDbLine
 10
98.4968520338
 20
9.9970004542
 30
0.0
 11
98.4968520338
 21
4.9970004542
 31
0.0
  0
LINE
  5
DA
330
1F
100
AcDbEntity
  8
0
  6
Continuous
 62
     7
370
     0
100
AcDbLine
 10
223.216372412
 20
44.6102865927
 30
0.0
 11
223.216372412
 21
33.8601915079
 31
0.0
  0
LINE
  5
DB
330
1F
100
AcDbEntity
  8
0
  6
Continuous
 62
     7
370
     0
100
AcDbLine
 10
183.3290236179
 20
33.7912495328
 30
0.0
 11
183.3290236179
 21
10.0045890898
 31
0.0
  0
LINE
  5
DC
330
1F
100
AcDbEntity
  8
0
  6
Continuous
 62
     7
370
     0
100
AcDbLine
 10
237.328937002
 20
44.6102865927
 30
0.0
 11
237.328937002
 21
33.8601915079
 31
0.0
  0
LINE
  5
DD
330
1F
100
AcDbEntity
  8
0
  6
Continuous
 62
     7
370
     0
100
AcDbLine
 10
148.5
 20
15.0
 30
0.0
 11
148.5
 21
5.0
 31
0.0
  0
LINE
  5
DE
330
1F
100
AcDbEntity
  8
0
  6
Continuous
 62
     7
370
     0
100
AcDbLine
 10
107.0
 20
10.0
 30
0.0
 11
287.0
 21
10.0
 31
0.0
  0
LINE
  5
DF
330
1F
100
AcDbEntity
  8
0
  6
Continuous
 62
     7
370
     0
100
AcDbLine
 10
287.0
 20
100.0
 30
0.0
 11
287.0
 21
10.0
 31
0.0
  0
LINE
  5
E0
330
1F
100
AcDbEntity
  8
0
  6
Continuous
 62
     7
370
     0
100
AcDbLine
 10
271.2287855961
 20
22.009921684
 30
0.0
 11
271.2287855961
 21
9.9784208993
 31
0.0
  0
LINE
  5
E1
330
1F
100
AcDbEntity
  8
0
  6
Continuous
 62
     7
370
     0
100
AcDbLine
 10
159.432744824
 20
44.6102865927
 30
0.0
 11
287.0
 21
44.6102865927
 31
0.0
  0
LINE
  5
E2
330
1F
100
AcDbEntity
  8
0
  6
Continuous
 62
     7
370
     0
100
AcDbLine
 10
208.1941594269
 20
22.009921684
 30
0.0
 11
287.0015319248
 21
22.009921684
 31
0.0
  0
LINE
  5
E3
330
1F
100
AcDbEntity
  8
0
  6
Continuous
 62
     7
370
     0
100
AcDbLine
 10
292.0014123446
 20
55.0
 30
0.0
 11
287.0014123446
 21
55.0
 31
0.0
  0
LINE
  5
E4
330
1F
100
AcDbEntity
  8
0
  6
Continuous
 62
     7
370
     0
100
AcDbLine
 10
198.4968520338
 20
9.9970004542
 30
0.0
 11
198.4968520338
 21
4.9970004542
 31
0.0
  0
LINE
  5
E5
330
1F
100
AcDbEntity
  8
0
  6
Continuous
 62
     7
370
     0
100
AcDbLine
 10
248.4968520338
 20
4.9970004542
 30
0.0
 11
248.4968520338
 21
9.9970004542
 31
0.0
  0
LINE
  5
E6
330
1F
100
AcDbEntity
  8
0
  6
Continuous
 62
     7
370
     0
100
AcDbLine
 10
287.0
 20
200.0
 30
0.0
 11
10.0
 21
200.0
 31
0.0
  0
LINE
  5
E7
330
1F
100
AcDbEntity
  8
0
  6
Continuous
 62
     7
370
     0
100
AcDbLine
 10
292.0
 20
205.0
 30
0.0
 11
5.0
 21
205.0
 31
0.0
  0
LINE
  5
E8
330
1F
100
AcDbEntity
  8
0
  6
Continuous
 62
     7
370
     0
100
AcDbLine
 10
10.0
 20
200.0
 30
0.0
 11
10.0
 21
10.0
 31
0.0
  0
LINE
  5
E9
330
1F
100
AcDbEntity
  8
0
  6
Continuous
 62
     7
370
     0
100
AcDbLine
 10
5.0
 20
205.0
 30
0.0
 11
5.0
 21
5.0
 31
0.0
  0
LINE
  5
EA
330
1F
100
AcDbEntity
  8
0
  6
Continuous
 62
     7
370
     0
100
AcDbLine
 10
10.0
 20
55.0
 30
0.0
 11
5.0
 21
55.0
 31
0.0
  0
LINE
  5
EB
330
1F
100
AcDbEntity
  8
0
  6
Continuous
 62
     7
370
     0
100
AcDbLine
 10
5.0
 20
105.0
 30
0.0
 11
15.0
 21
105.0
 31
0.0
  0
LINE
  5
EC
330
1F
100
AcDbEntity
  8
0
  6
Continuous
 62
     7
370
     0
100
AcDbLine
 10
5.0
 20
5.0
 30
0.0
 11
292.0
 21
5.0
 31
0.0
  0
LINE
  5
ED
330
1F
100
AcDbEntity
  8
0
  6
Continuous
 62
     7
370
     0
100
AcDbLine
 10
10.0
 20
10.0
 30
0.0
 11
287.0
 21
10.0
 31
0.0
  0
LINE
  5
EE
330
1F
100
AcDbEntity
  8
0
  6
Continuous
 62
     7
370
     0
100
AcDbLine
 10
48.5
 20
5.0
 30
0.0
 11
48.5
 21
10.0
 31
0.0
  0
LINE
  5
EF
330
1F
100
AcDbEntity
  8
0
  6
Continuous
 62
     7
370
     0
100
AcDbLine
 10
10.0
 20
155.0
 30
0.0
 11
5.0
 21
155.0
 31
0.0
  0
LINE
  5
F0
330
1F
100
AcDbEntity
  8
0
  6
Continuous
 62
     7
370
     0
100
AcDbLine
 10
48.5
 20
200.0
 30
0.0
 11
48.5
 21
205.0
 31
0.0
  0
LINE
  5
F1
330
1F
100
AcDbEntity
  8
0
  6
Continuous
 62
     7
370
     0
100
AcDbLine
 10
98.5
 20
205.0
 30
0.0
 11
98.5
 21
200.0
 31
0.0
  0
LINE
  5
F2
330
1F
100
AcDbEntity
  8
0
  6
Continuous
 62
     7
370
     0
100
AcDbLine
 10
148.5
 20
205.0
 30
0.0
 11
148.5
 21
195.0
 31
0.0
  0
LINE
  5
F3
330
1F
100
AcDbEntity
  8
0
  6
Continuous
 62
     7
370
     0
100
AcDbLine
 10
287.0
 20
10.0
 30
0.0
 11
287.0
 21
200.0
 31
0.0
  0
LINE
  5
F4
330
1F
100
AcDbEntity
  8
0
  6
Continuous
 62
     7
370
     0
100
AcDbLine
 10
292.0
 20
5.0
 30
0.0
 11
292.0
 21
205.0
 31
0.0
  0
LINE
  5
F5
330
1F
100
AcDbEntity
  8
0
  6
Continuous
 62
     7
370
     0
100
AcDbLine
 10
292.0
 20
105.0
 30
0.0
 11
282.0
 21
105.0
 31
0.0
  0
LINE
  5
F6
330
1F
100
AcDbEntity
  8
0
  6
Continuous
 62
     7
370
     0
100
AcDbLine
 10
198.5
 20
205.0
 30
0.0
 11
198.5
 21
200.0
 31
0.0
  0
LINE
  5
F7
330
1F
100
AcDbEntity
  8
0
  6
Continuous
 62
     7
370
     0
100
AcDbLine
 10
248.5
 20
200.0
 30
0.0
 11
248.5
 21
205.0
 31
0.0
  0
LINE
  5
F8
330
1F
100
AcDbEntity
  8
0
  6
Continuous
 62
     7
370
     0
100
AcDbLine
 10
287.0
 20
155.0
 30
0.0
 11
292.0
 21
155.0
 31
0.0
  0
INSERT
  5
F9
330
1F
100
AcDbEntity
  8
0
  6
Continuous
 62
     7
100
AcDbBlockReference
  2
HDLOGOWK
 10
161.6454446327
 20
35.330954899
 30
0.0
 41
0.135
 42
0.135
 43
0.135
  0
MTEXT
  5
FB
330
1F
100
AcDbEntity
  8
0
  6
Continuous
 62
     7
370
     0
100
AcDbMText
 10
6.6666666667
 20
131.1680164036
 30
0.0
 40
1.8520833333
 41
0.0
 71
     1
 72
     1
  1
B
  7
SLDTEXTSTYLE0
 73
     1
 44
1.0
  0
MTEXT
  5
FC
330
1F
100
AcDbEntity
  8
0
  6
Continuous
 62
     7
370
     0
100
AcDbMText
 10
6.6666666667
 20
81.1680164036
 30
0.0
 40
1.8520833333
 41
0.0
 71
     1
 72
     1
  1
C
  7
SLDTEXTSTYLE0
 73
     1
 44
1.0
  0
MTEXT
  5
FD
330
1F
100
AcDbEntity
  8
0
  6
Continuous
 62
     7
370
     0
100
AcDbMText
 10
6.6666666667
 20
31.1680164036
 30
0.0
 40
1.8520833333
 41
0.0
 71
     1
 72
     1
  1
D
  7
SLDTEXTSTYLE0
 73
     1
 44
1.0
  0
MTEXT
  5
FE
330
1F
100
AcDbEntity
  8
0
  6
Continuous
 62
     7
370
     0
100
AcDbMText
 10
23.0833373333
 20
8.6680164036
 30
0.0
 40
1.8520833333
 41
0.0
 71
     1
 72
     1
  1
1
  7
SLDTEXTSTYLE0
 73
     1
 44
1.0
  0
MTEXT
  5
FF
330
1F
100
AcDbEntity
  8
0
  6
Continuous
 62
     7
370
     0
100
AcDbMText
 10
72.6666706667
 20
8.6680164036
 30
0.0
 40
1.8520833333
 41
0.0
 71
     1
 72
     1
  1
2
  7
SLDTEXTSTYLE0
 73
     1
 44
1.0
  0
MTEXT
  5
100
330
1F
100
AcDbEntity
  8
0
  6
Continuous
 62
     7
370
     0
100
AcDbMText
 10
6.6666666667
 20
181.1680164036
 30
0.0
 40
1.8520833333
 41
0.0
 71
     1
 72
     1
  1
A
  7
SLDTEXTSTYLE0
 73
     1
 44
1.0
  0
MTEXT
  5
101
330
1F
100
AcDbEntity
  8
0
  6
Continuous
 62
     7
370
     0
100
AcDbMText
 10
122.6666706667
 20
203.6680164036
 30
0.0
 40
1.8520833333
 41
0.0
 71
     1
 72
     1
  1
3
  7
SLDTEXTSTYLE0
 73
     1
 44
1.0
  0
MTEXT
  5
102
330
1F
100
AcDbEntity
  8
0
  6
Continuous
 62
     7
370
     0
100
AcDbMText
 10
72.6666706667
 20
203.6680164036
 30
0.0
 40
1.8520833333
 41
0.0
 71
     1
 72
     1
  1
2
  7
SLDTEXTSTYLE0
 73
     1
 44
1.0
  0
MTEXT
  5
103
330
1F
100
AcDbEntity
  8
0
  6
Continuous
 62
     7
370
     0
100
AcDbMText
 10
23.0833373333
 20
203.6680164036
 30
0.0
 40
1.8520833333
 41
0.0
 71
     1
 72
     1
  1
1
  7
SLDTEXTSTYLE0
 73
     1
 44
1.0
  0
MTEXT
  5
104
330
1F
100
AcDbEntity
  8
0
  6
Continuous
 62
     7
370
     0
100
AcDbMText
 10
172.6666706667
 20
203.6680164036
 30
0.0
 40
1.8520833333
 41
0.0
 71
     1
 72
     1
  1
4
  7
SLDTEXTSTYLE0
 73
     1
 44
1.0
  0
MTEXT
  5
105
330
1F
100
AcDbEntity
  8
0
  6
Continuous
 62
     7
370
     0
100
AcDbMText
 10
288.6666746667
 20
131.1680164036
 30
0.0
 40
1.8520833333
 41
0.0
 71
     1
 72
     1
  1
B
  7
SLDTEXTSTYLE0
 73
     1
 44
1.0
  0
MTEXT
  5
106
330
1F
100
AcDbEntity
  8
0
  6
Continuous
 62
     7
370
     0
100
AcDbMText
 10
288.6666746667
 20
181.1680164036
 30
0.0
 40
1.8520833333
 41
0.0
 71
     1
 72
     1
  1
A
  7
SLDTEXTSTYLE0
 73
     1
 44
1.0
  0
MTEXT
  5
107
330
1F
100
AcDbEntity
  8
0
  6
Continuous
 62
     7
370
     0
100
AcDbMText
 10
222.6666706667
 20
203.6680164036
 30
0.0
 40
1.8520833333
 41
0.0
 71
     1
 72
     1
  1
5
  7
SLDTEXTSTYLE0
 73
     1
 44
1.0
  0
MTEXT
  5
108
330
1F
100
AcDbEntity
  8
0
  6
Continuous
 62
     7
370
     0
100
AcDbMText
 10
272.6666706667
 20
203.6680164036
 30
0.0
 40
1.8520833333
 41
0.0
 71
     1
 72
     1
  1
6
  7
SLDTEXTSTYLE0
 73
     1
 44
1.0
  0
MTEXT
  5
109
330
1F
100
AcDbEntity
  8
0
  6
Continuous
 62
     7
370
     0
100
AcDbMText
 10
288.6926520658
 20
82.1496220514
 30
0.0
 40
1.8520833333
 41
0.0
 71
     1
 72
     1
  1
C
  7
SLDTEXTSTYLE0
 73
     1
 44
1.0
  0
MTEXT
  5
10B
330
1F
100
AcDbEntity
  8
0
  6
Continuous
 62
     7
370
     0
100
AcDbMText
 10
286.2541151803
 20
8.5354806404
 30
0.0
 40
2.0
 41
0.0
 71
     3
 72
     1
  1
A4 SHEET 1 OF 1
  7
SLDTEXTSTYLE1
 73
     1
 44
1.0
  0
MTEXT
  5
10D
330
1F
100
AcDbEntity
  8
0
  6
Continuous
 62
     7
370
     0
100
AcDbMText
 10
260.4881635788
 20
39.8186983865
 30
0.0
 40
3.175
 41
0.0
 71
     2
 72
     1
  1
Stainless Steel 1.2t
  7
SLDTEXTSTYLE2
 73
     1
 44
1.0
  0
MTEXT
  5
10E
330
1F
100
AcDbEntity
  8
0
  6
Continuous
 62
     7
370
     0
100
AcDbMText
 10
236.9792774131
 20
17.0961048509
 30
0.0
 40
4.2333333333
 41
0.0
 71
     2
 72
     1
  1
ACC028-DWG-B2
  7
SLDTEXTSTYLE2
 73
     1
 44
1.0
  0
MTEXT
  5
10F
330
1F
100
AcDbEntity
  8
0
  6
Continuous
 62
     7
370
     0
100
AcDbMText
 10
272.7885903721
 20
20.5785376173
 30
0.0
 40
2.0
 41
0.0
 71
     1
 72
     1
  1
REV
  7
SLDTEXTSTYLE1
 73
     1
 44
1.0
  0
MTEXT
  5
110
330
1F
100
AcDbEntity
  8
0
  6
Continuous
 62
     7
370
     0
100
AcDbMText
 10
225.9071127439
 20
39.9999799303
 30
0.0
 40
4.2333333333
 41
0.0
 71
     1
 72
     1
  1
mm
  7
SLDTEXTSTYLE2
 73
     1
 44
1.0
  0
MTEXT
  5
111
330
1F
100
AcDbEntity
  8
0
  6
Continuous
 62
     7
370
     0
100
AcDbMText
 10
224.5648923616
 20
43.6415519393
 30
0.0
 40
2.0
 41
0.0
 71
     1
 72
     1
  1
UNIT
  7
SLDTEXTSTYLE1
 73
     1
 44
1.0
  0
MTEXT
  5
112
330
1F
100
AcDbEntity
  8
0
  6
Continuous
 62
     7
370
     0
100
AcDbMText
 10
184.6723541579
 20
32.3731536278
 30
0.0
 40
2.0
 41
0.0
 71
     1
 72
     1
  1
DWG
  7
SLDTEXTSTYLE1
 73
     1
 44
1.0
  0
MTEXT
  5
113
330
1F
100
AcDbEntity
  8
0
  6
Continuous
 62
     7
370
     0
100
AcDbMText
 10
209.5958874861
 20
32.2227354635
 30
0.0
 40
2.0
 41
0.0
 71
     1
 72
     1
  1
TITLE
  7
SLDTEXTSTYLE1
 73
     1
 44
1.0
  0
MTEXT
  5
114
330
1F
100
AcDbEntity
  8
0
  6
Continuous
 62
     7
370
     0
100
AcDbMText
 10
243.4199253699
 20
28.8319790862
 30
0.0
 40
4.2333333333
 41
0.0
 71
     2
 72
     1
  1
ACC-028 Outline Drawing
  7
SLDTEXTSTYLE2
 73
     1
 44
1.0
  0
MTEXT
  5
115
330
1F
100
AcDbEntity
  8
0
  6
Continuous
 62
     7
370
     0
100
AcDbMText
 10
279.2598758034
 20
17.0961048509
 30
0.0
 40
4.2333333333
 41
0.0
 71
     2
 72
     1
  1
B2
  7
SLDTEXTSTYLE2
 73
     1
 44
1.0
  0
MTEXT
  5
116
330
1F
100
AcDbEntity
  8
0
  6
Continuous
 62
     7
370
     0
100
AcDbMText
 10
209.7010936351
 20
20.8351972104
 30
0.0
 40
2.0
 41
0.0
 71
     1
 72
     1
  1
DRAWING NO
  7
SLDTEXTSTYLE1
 73
     1
 44
1.0
  0
MTEXT
  5
117
330
1F
100
AcDbEntity
  8
0
  6
Continuous
 62
     7
370
     0
100
AcDbMText
 10
160.7857382062
 20
32.3731536278
 30
0.0
 40
2.0
 41
0.0
 71
     1
 72
     1
  1
CHK
  7
SLDTEXTSTYLE1
 73
     1
 44
1.0
  0
MTEXT
  5
118
330
1F
100
AcDbEntity
  8
0
  6
Continuous
 62
     7
370
     0
100
AcDbMText
 10
239.645859176
 20
43.6415519393
 30
0.0
 40
2.0
 41
0.0
 71
     1
 72
     1
  1
MATERIAL
  7
SLDTEXTSTYLE1
 73
     1
 44
1.0
  0
MTEXT
  5
119
330
1F
100
AcDbEntity
  8
0
  6
Continuous
 62
     7
370
     0
100
AcDbMText
 10
212.2381088667
 20
39.9999801049
 30
0.0
 40
4.2333333333
 41
0.0
 71
     1
 72
     1
  1
1:1
  7
SLDTEXTSTYLE2
 73
     1
 44
1.0
  0
MTEXT
  5
11A
330
1F
100
AcDbEntity
  8
0
  6
Continuous
 62
     7
370
     0
100
AcDbMText
 10
209.5572067527
 20
43.336494269
 30
0.0
 40
2.0
 41
0.0
 71
     1
 72
     1
  1
SCALE
  7
SLDTEXTSTYLE1
 73
     1
 44
1.0
  0
MTEXT
  5
11B
330
1F
100
AcDbEntity
  8
0
  6
Continuous
 62
     7
370
     0
100
AcDbMText
 10
222.6635227005
 20
8.6650168578
 30
0.0
 40
1.8520833333
 41
0.0
 71
     1
 72
     1
  1
5
  7
SLDTEXTSTYLE0
 73
     1
 44
1.0
  0
MTEXT
  5
11C
330
1F
100
AcDbEntity
  8
0
  6
Continuous
 62
     7
370
     0
100
AcDbMText
 10
172.6635227005
 20
8.6650168578
 30
0.0
 40
1.8520833333
 41
0.0
 71
     1
 72
     1
  1
4
  7
SLDTEXTSTYLE0
 73
     1
 44
1.0
  0
MTEXT
  5
11D
330
1F
100
AcDbEntity
  8
0
  6
Continuous
 62
     7
370
     0
100
AcDbMText
 10
122.6635227005
 20
8.6650168578
 30
0.0
 40
1.8520833333
 41
0.0
 71
     1
 72
     1
  1
3
  7
SLDTEXTSTYLE0
 73
     1
 44
1.0
  0
MTEXT
  5
11E
330
1F
100
AcDbEntity
  8
0
  6
Continuous
 62
     7
370
     0
100
AcDbMText
 10
204.5546577931
 20
39.4013560792
 30
0.0
 40
2.1166666667
 41
0.0
 71
     1
 72
     1
  1
\U+00AE
  7
SLDTEXTSTYLE2
 73
     1
 44
1.0
  0
LINE
  5
11F
330
1F
100
AcDbEntity
  8
0
  6
Continuous
 62
     7
370
    15
100
AcDbLine
 10
97.6153851271
 20
64.1394192396
 30
0.0
 11
97.6153851271
 21
141.1394188224
 31
0.0
  0
ARC
  5
120
330
1F
100
AcDbEntity
  8
0
  6
Continuous
 62
     7
370
    15
100
AcDbCircle
 10
112.3787852466
 20
69.139419031
 30
0.0
 40
4.999999999999986
100
AcDbArc
 50
270.0
 51
0.0
  0
CIRCLE
  5
121
330
1F
100
AcDbEntity
  8
0
  6
Continuous
 62
     7
370
    15
100
AcDbCircle
 10
106.1787852466
 20
111.639419031
 30
0.0
 40
1.600000000000023
  0
CIRCLE
  5
122
330
1F
100
AcDbEntity
  8
0
  6
Continuous
 62
     7
370
    15
100
AcDbCircle
 10
106.1787852466
 20
93.639419031
 30
0.0
 40
1.600000000000023
  0
CIRCLE
  5
123
330
1F
100
AcDbEntity
  8
0
  6
Continuous
 62
     7
370
    15
100
AcDbCircle
 10
107.1787852466
 20
78.639419031
 30
0.0
 40
6.500000000000014
  0
CIRCLE
  5
124
330
1F
100
AcDbEntity
  8
0
  6
Continuous
 62
     7
370
    15
100
AcDbCircle
 10
107.1787852466
 20
126.639419031
 30
0.0
 40
6.500000000000014
  0
CIRCLE
  5
125
330
1F
100
AcDbEntity
  8
0
  6
Continuous
 62
     7
370
    15
100
AcDbCircle
 10
111.1787852466
 20
111.639419031
 30
0.0
 40
1.600000000000023
  0
CIRCLE
  5
126
330
1F
100
AcDbEntity
  8
0
  6
Continuous
 62
     7
370
    15
100
AcDbCircle
 10
111.1787852466
 20
93.639419031
 30
0.0
 40
1.600000000000023
  0
LINE
  5
127
330
1F
100
AcDbEntity
  8
0
  6
Continuous
 62
     7
370
    15
100
AcDbLine
 10
97.6153851271
 20
64.1394192396
 30
0.0
 11
112.3787850857
 21
64.1394192396
 31
0.0
  0
LINE
  5
128
330
1F
100
AcDbEntity
  8
0
  6
Continuous
 62
     7
370
    15
100
AcDbLine
 10
112.3787850857
 20
141.1394188224
 30
0.0
 11
97.6153851271
 21
141.1394188224
 31
0.0
  0
ARC
  5
129
330
1F
100
AcDbEntity
  8
0
  6
Continuous
 62
     7
370
    15
100
AcDbCircle
 10
112.3787852466
 20
136.139419031
 30
0.0
 40
5.0
100
AcDbArc
 50
0.0
 51
90.0
  0
LINE
  5
12A
330
1F
100
AcDbEntity
  8
0
  6
Continuous
 62
     7
370
    15
100
AcDbLine
 10
117.3787840426
 20
69.1394181965
 30
0.0
 11
117.3787840426
 21
136.1394198655
 31
0.0
  0
LINE
  5
12B
330
1F
100
AcDbEntity
  8
0
  6
Continuous
 62
     7
370
    15
100
AcDbLine
 10
95.6787855148
 20
141.1394188224
 30
0.0
 11
97.6153851271
 21
141.1394188224
 31
0.0
  0
LINE
  5
12C
330
1F
100
AcDbEntity
  8
0
  6
Continuous
 62
     7
370
    15
100
AcDbLine
 10
95.6787855148
 20
64.1394192396
 30
0.0
 11
95.6787855148
 21
141.1394188224
 31
0.0
  0
LINE
  5
12D
330
1F
100
AcDbEntity
  8
0
  6
Continuous
 62
     7
370
    15
100
AcDbLine
 10
97.6153851271
 20
64.1394192396
 30
0.0
 11
95.6787855148
 21
64.1394192396
 31
0.0
  0
LINE
  5
12E
330
1F
100
AcDbEntity
  8
0
  6
Continuous
 62
     7
370
    15
100
AcDbLine
 10
95.6787855148
 20
141.1394188224
 30
0.0
 11
94.9421847954
 21
141.1394188224
 31
0.0
  0
LINE
  5
12F
330
1F
100
AcDbEntity
  8
0
  6
Continuous
 62
     7
370
    15
100
AcDbLine
 10
94.9421847954
 20
141.1394188224
 30
0.0
 11
94.9421847954
 21
64.1394192396
 31
0.0
  0
LINE
  5
130
330
1F
100
AcDbEntity
  8
0
  6
Continuous
 62
     7
370
    15
100
AcDbLine
 10
94.9421847954
 20
64.1394192396
 30
0.0
 11
95.6787855148
 21
64.1394192396
 31
0.0
  0
ARC
  5
131
330
1F
100
AcDbEntity
  8
0
  6
Continuous
 62
     7
370
    15
100
AcDbCircle
 10
87.6787852466
 20
136.139419031
 30
0.0
 40
5.0
100
AcDbArc
 50
90.0
 51
180.0
  0
LINE
  5
132
330
1F
100
AcDbEntity
  8
0
  6
Continuous
 62
     7
370
    15
100
AcDbLine
 10
94.9421847954
 20
141.1394188224
 30
0.0
 11
87.6787851349
 21
141.1394188224
 31
0.0
  0
ARC
  5
133
330
1F
100
AcDbEntity
  8
0
  6
Continuous
 62
     7
370
    15
100
AcDbCircle
 10
87.6787852466
 20
69.139419031
 30
0.0
 40
4.999999999999986
100
AcDbArc
 50
180.0
 51
270.0
  0
LINE
  5
134
330
1F
100
AcDbEntity
  8
0
  6
Continuous
 62
     7
370
    15
100
AcDbLine
 10
82.6787852466
 20
73.7394196956
 30
0.0
 11
82.6787852466
 21
69.1394181965
 31
0.0
  0
ARC
  5
135
330
1F
100
AcDbEntity
  8
0
  6
Continuous
 62
     7
370
    15
100
AcDbCircle
 10
84.6787852466
 20
73.739419031
 30
0.0
 40
2.0
100
AcDbArc
 50
90.0
 51
180.0
  0
LINE
  5
136
330
1F
100
AcDbEntity
  8
0
  6
Continuous
 62
     7
370
    15
100
AcDbLine
 10
88.1787852168
 20
75.7394181608
 30
0.0
 11
84.6787853416
 21
75.7394181608
 31
0.0
  0
ARC
  5
137
330
1F
100
AcDbEntity
  8
0
  6
Continuous
 62
     7
370
    15
100
AcDbCircle
 10
88.1787852466
 20
77.639419031
 30
0.0
 40
1.900000000000048
100
AcDbArc
 50
270.0
 51
90.0
  0
LINE
  5
138
330
1F
100
AcDbEntity
  8
0
  6
Continuous
 62
     7
370
    15
100
AcDbLine
 10
84.6787853416
 20
79.5394191562
 30
0.0
 11
88.1787852168
 21
79.5394191562
 31
0.0
  0
ARC
  5
139
330
1F
100
AcDbEntity
  8
0
  6
Continuous
 62
     7
370
    15
100
AcDbCircle
 10
84.6787852466
 20
81.539419031
 30
0.0
 40
2.000000000000014
100
AcDbArc
 50
180.0
 51
270.0
  0
LINE
  5
13A
330
1F
100
AcDbEntity
  8
0
  6
Continuous
 62
     7
370
    15
100
AcDbLine
 10
82.6787852466
 20
123.739418578
 30
0.0
 11
82.6787852466
 21
81.539419484
 31
0.0
  0
ARC
  5
13B
330
1F
100
AcDbEntity
  8
0
  6
Continuous
 62
     7
370
    15
100
AcDbCircle
 10
84.6787852466
 20
123.739419031
 30
0.0
 40
2.0
100
AcDbArc
 50
90.0
 51
180.0
  0
LINE
  5
13C
330
1F
100
AcDbEntity
  8
0
  6
Continuous
 62
     7
370
    15
100
AcDbLine
 10
88.1787852168
 20
125.7394189058
 30
0.0
 11
84.6787853416
 21
125.7394189058
 31
0.0
  0
ARC
  5
13D
330
1F
100
AcDbEntity
  8
0
  6
Continuous
 62
     7
370
    15
100
AcDbCircle
 10
88.1787852466
 20
127.639419031
 30
0.0
 40
1.900000000000034
100
AcDbArc
 50
270.0
 51
90.0
  0
LINE
  5
13E
330
1F
100
AcDbEntity
  8
0
  6
Continuous
 62
     7
370
    15
100
AcDbLine
 10
84.6787853416
 20
129.5394199012
 30
0.0
 11
88.1787852168
 21
129.5394199012
 31
0.0
  0
ARC
  5
13F
330
1F
100
AcDbEntity
  8
0
  6
Continuous
 62
     7
370
    15
100
AcDbCircle
 10
84.6787852466
 20
131.539419031
 30
0.0
 40
2.0
100
AcDbArc
 50
180.0
 51
270.0
  0
LINE
  5
140
330
1F
100
AcDbEntity
  8
0
  6
Continuous
 62
     7
370
    15
100
AcDbLine
 10
82.6787852466
 20
136.1394198655
 30
0.0
 11
82.6787852466
 21
131.5394183664
 31
0.0
  0
LINE
  5
141
330
1F
100
AcDbEntity
  8
0
  6
Continuous
 62
     7
370
    15
100
AcDbLine
 10
87.6787851349
 20
64.1394192396
 30
0.0
 11
94.9421847954
 21
64.1394192396
 31
0.0
  0
LINE
  5
142
330
1F
100
AcDbEntity
  8
0
  6
CENTERX2
 62
     7
370
     0
100
AcDbLine
 10
79.192492918
 20
102.639419031
 30
0.0
 11
120.0700413605
 21
102.639419031
 31
0.0
  0
DIMENSION
  5
143
330
1F
100
AcDbEntity
  8
0
  6
Continuous
 62
     7
370
     0
100
AcDbDimension
  2
_D
 10
117.3787852466
 20
157.139419031
 30
0.0
 11
100.0287852466
 21
157.139419031
 31
0.0
 70
   160
  1
<>
 71
     2
 42
-1.0
  3
SLDDIMSTYLE0
100
AcDbAlignedDimension
 13
82.6787852466
 23
136.139419031
 33
0.0
 14
117.3787852466
 24
136.139419031
 34
0.0
100
AcDbRotatedDimension
  0
DIMENSION
  5
14E
330
1F
100
AcDbEntity
  8
0
  6
Continuous
 62
     7
370
     0
100
AcDbDimension
  2
_D_1
 10
60.6787852466
 20
64.139419031
 30
0.0
 11
60.6787852466
 21
102.639419031
 31
0.0
 70
   160
  1
<>
 71
     2
 42
-1.0
  3
SLDDIMSTYLE1
100
AcDbAlignedDimension
 13
87.6787852466
 23
141.139419031
 33
0.0
 14
87.6787852466
 24
64.139419031
 34
0.0
 50
90.0
100
AcDbRotatedDimension
  0
DIMENSION
  5
159
330
1F
100
AcDbEntity
  8
0
  6
Continuous
 62
     7
370
     0
100
AcDbDimension
  2
_D_2
 10
153.0328418029
 20
78.639419031
 30
0.0
 11
153.0328418029
 21
102.639419031
 31
0.0
 70
   160
  1
<>
 71
     2
 42
-1.0
  3
SLDDIMSTYLE1
100
AcDbAlignedDimension
 13
116.1787852466
 23
126.639419031
 33
0.0
 14
116.1787852466
 24
78.639419031
 34
0.0
 50
90.0
100
AcDbRotatedDimension
  0
DIMENSION
  5
163
330
1F
100
AcDbEntity
  8
0
  6
Continuous
 62
     7
370
     0
100
AcDbDimension
  2
_D_3
 10
101.549620122
 20
123.389419031
 30
0.0
 11
140.3806919293
 21
145.8085530183
 31
0.0
 70
   163
  1
2-Φ13
 71
     1
 42
-1.0
  3
SLDDIMSTYLE2
100
AcDbDiametricDimension
 15
112.8079503712
 25
129.889419031
 35
0.0
 40
0.0
  0
DIMENSION
  5
16B
330
1F
100
AcDbEntity
  8
0
  6
Continuous
 62
     7
370
     0
100
AcDbDimension
  2
_D_4
 10
109.7931446006
 20
110.839419031
 30
0.0
 11
148.8118120373
 21
133.3668614055
 31
0.0
 70
   163
  1
4-Φ3.2
 71
     1
 42
-1.0
  3
SLDDIMSTYLE3
100
AcDbDiametricDimension
 15
112.5644258927
 25
112.439419031
 35
0.0
 40
0.0
  0
DIMENSION
  5
173
330
1F
100
AcDbEntity
  8
0
  6
Continuous
 62
     7
370
     0
100
AcDbDimension
  2
_D_5
 10
145.3787852466
 20
111.639419031
 30
0.0
 11
145.3787852466
 21
118.1643185955
 31
0.0
 70
   160
  1
<>
 71
     2
 42
-1.0
  3
SLDDIMSTYLE1
100
AcDbAlignedDimension
 13
116.1787852466
 23
126.639419031
 33
0.0
 14
115.2787852466
 24
111.639419031
 34
0.0
 50
90.0
100
AcDbRotatedDimension
  0
DIMENSION
  5
17D
330
1F
100
AcDbEntity
  8
0
  6
Continuous
 62
     7
370
     0
100
AcDbDimension
  2
_D_6
 10
111.1787852466
 20
57.9907872768
 30
0.0
 11
108.6787852466
 21
57.9907872768
 31
0.0
 70
   160
  1
<>
 71
     2
 42
-1.0
  3
SLDDIMSTYLE4
100
AcDbAlignedDimension
 13
106.1787852466
 23
107.539419031
 33
0.0
 14
111.1787852466
 24
107.539419031
 34
0.0
100
AcDbRotatedDimension
  0
DIMENSION
  5
18A
330
1F
100
AcDbEntity
  8
0
  6
Continuous
 62
     7
370
     0
100
AcDbDimension
  2
_D_7
 10
112.3787852466
 20
69.139419031
 30
0.0
 11
131.6887918797
 21
57.9907972768
 31
0.0
 70
   164
  1
<>
 71
     1
 42
-1.0
  3
SLDDIMSTYLE5
100
AcDbRadialDimension
 15
116.7089122655
 25
66.639419031
 35
0.0
 40
0.0
  0
DIMENSION
  5
193
330
1F
100
AcDbEntity
  8
0
  6
Continuous
 62
     7
370
     0
100
AcDbDimension
  2
_D_8
 10
88.1787852466
 20
57.9907872768
 30
0.0
 11
77.6260355532
 21
57.9907872768
 31
0.0
 70
   160
  1
<>
 71
     2
 42
-1.0
  3
SLDDIMSTYLE6
100
AcDbAlignedDimension
 13
82.6787852466
 23
81.539419031
 33
0.0
 14
88.1787852466
 24
77.639419031
 34
0.0
100
AcDbRotatedDimension
  0
DIMENSION
  5
1A0
330
1F
100
AcDbEntity
  8
0
  6
Continuous
 62
     7
370
     0
100
AcDbDimension
  2
_D_9
 10
84.6787852466
 20
123.739419031
 30
0.0
 11
73.185403544
 21
130.3751418244
 31
0.0
 70
   164
  1
<>
 71
     1
 42
-1.0
  3
SLDDIMSTYLE7
100
AcDbRadialDimension
 15
82.946734439
 25
124.739419031
 35
0.0
 40
0.0
  0
DIMENSION
  5
1A8
330
1F
100
AcDbEntity
  8
0
  6
Continuous
 62
     7
370
     0
100
AcDbDimension
  2
_D_10
 10
69.7875750471
 20
77.639419031
 30
0.0
 11
69.7875750471
 21
102.639419031
 31
0.0
 70
   160
  1
<>
 71
     2
 42
-1.0
  3
SLDDIMSTYLE1
100
AcDbAlignedDimension
 13
88.1787852466
 23
127.639419031
 33
0.0
 14
88.1787852466
 24
77.639419031
 34
0.0
 50
90.0
100
AcDbRotatedDimension
  0
DIMENSION
  5
1B2
330
1F
100
AcDbEntity
  8
0
  6
Continuous
 62
     7
370
     0
100
AcDbDimension
  2
_D_11
 10
77.6260355532
 20
75.739419031
 30
0.0
 11
77.6260355532
 21
86.7800308971
 31
0.0
 70
   160
  1
<>
 71
     2
 42
-1.0
  3
SLDDIMSTYLE6
100
AcDbAlignedDimension
 13
84.6787852466
 23
79.539419031
 33
0.0
 14
84.6787852466
 24
75.739419031
 34
0.0
 50
90.0
100
AcDbRotatedDimension
  0
DIMENSION
  5
1BE
330
1F
100
AcDbEntity
  8
0
  6
Continuous
 62
     7
370
     0
100
AcDbDimension
  2
_D_12
 10
107.1787852466
 20
147.9239013268
 30
0.0
 11
94.9287852466
 21
147.9239013268
 31
0.0
 70
   160
  1
<>
 71
     2
 42
-1.0
  3
SLDDIMSTYLE8
100
AcDbAlignedDimension
 13
82.6787852466
 23
136.139419031
 33
0.0
 14
107.1787852466
 24
135.639419031
 34
0.0
100
AcDbRotatedDimension
  0
DIMENSION
  5
1C9
330
1F
100
AcDbEntity
  8
0
  6
Continuous
 62
     7
370
     0
100
AcDbDimension
  2
_D_13
 10
111.1787852466
 20
143.7427571572
 30
0.0
 11
109.1566070956
 21
143.7427571572
 31
0.0
 70
   160
  1
<>
 71
     2
 42
-1.0
  3
SLDDIMSTYLE4
100
AcDbAlignedDimension
 13
107.1787852466
 23
135.639419031
 33
0.0
 14
111.1787852466
 24
115.739419031
 34
0.0
100
AcDbRotatedDimension
  0
DIMENSION
  5
1D5
330
1F
100
AcDbEntity
  8
0
  6
Continuous
 62
     7
370
     0
100
AcDbDimension
  2
_D_14
 10
87.6787852466
 20
136.139419031
 30
0.0
 11
61.516696055
 21
151.2441240418
 31
0.0
 70
   164
  1
<>
 71
     1
 42
-1.0
  3
SLDDIMSTYLE5
100
AcDbRadialDimension
 15
83.3486582277
 25
138.639419031
 35
0.0
 40
0.0
  0
INSERT
  5
1E8
330
1F
100
AcDbEntity
  8
0
  6
Continuous
 62
     7
370
     0
100
AcDbBlockReference
  2
SW_CENTERMARKSYMBOL_0
 10
106.1787852466
 20
111.639419031
 30
0.0
  0
INSERT
  5
1F4
330
1F
100
AcDbEntity
  8
0
  6
Continuous
 62
     7
370
     0
100
AcDbBlockReference
  2
SW_CENTERMARKSYMBOL_1
 10
106.1787852466
 20
93.639419031
 30
0.0
  0
INSERT
  5
200
330
1F
100
AcDbEntity
  8
0
  6
Continuous
 62
     7
370
     0
100
AcDbBlockReference
  2
SW_CENTERMARKSYMBOL_2
 10
107.1787852466
 20
78.639419031
 30
0.0
  0
INSERT
  5
20C
330
1F
100
AcDbEntity
  8
0
  6
Continuous
 62
     7
370
     0
100
AcDbBlockReference
  2
SW_CENTERMARKSYMBOL_3
 10
107.1787852466
 20
126.639419031
 30
0.0
  0
INSERT
  5
218
330
1F
100
AcDbEntity
  8
0
  6
Continuous
 62
     7
370
     0
100
AcDbBlockReference
  2
SW_CENTERMARKSYMBOL_4
 10
111.1787852466
 20
111.639419031
 30
0.0
  0
INSERT
  5
224
330
1F
100
AcDbEntity
  8
0
  6
Continuous
 62
     7
370
     0
100
AcDbBlockReference
  2
SW_CENTERMARKSYMBOL_5
 10
111.1787852466
 20
93.639419031
 30
0.0
  0
LINE
  5
225
330
1F
100
AcDbEntity
  8
0
  6
Continuous
 62
     7
370
    15
100
AcDbLine
 10
94.9421847954
 20
173.8686334941
 30
0.0
 11
94.9421847954
 21
175.0686335511
 31
0.0
  0
LINE
  5
226
330
1F
100
AcDbEntity
  8
0
  6
Continuous
 62
     7
370
    15
100
AcDbLine
 10
95.6787855148
 20
173.1320334732
 30
0.0
 11
96.878785339
 21
173.1320334732
 31
0.0
  0
ARC
  5
227
330
1F
100
AcDbEntity
  8
0
  6
Continuous
 62
     7
370
    15
100
AcDbCircle
 10
94.9421852466
 20
173.1320334941
 30
0.0
 40
0.7365999999999957
100
AcDbArc
 50
0.0
 51
90.0
  0
ARC
  5
228
330
1F
100
AcDbEntity
  8
0
  6
Continuous
 62
     7
370
    15
100
AcDbCircle
 10
94.9421852466
 20
173.1320334941
 30
0.0
 40
1.936599999999999
100
AcDbArc
 50
0.0
 51
90.0
  0
LINE
  5
229
330
1F
100
AcDbEntity
  8
0
  6
Continuous
 62
     7
370
    15
100
AcDbLine
 10
87.6787851349
 20
175.0686335511
 30
0.0
 11
87.6787851349
 21
173.8686334941
 31
0.0
  0
LINE
  5
22A
330
1F
100
AcDbEntity
  8
0
  6
Continuous
 62
     7
370
    15
100
AcDbLine
 10
87.6787851349
 20
173.8686334941
 30
0.0
 11
82.6787852466
 21
173.8686334941
 31
0.0
  0
LINE
  5
22B
330
1F
100
AcDbEntity
  8
0
  6
Continuous
 62
     7
370
    15
100
AcDbLine
 10
82.6787852466
 20
173.8686334941
 30
0.0
 11
82.6787852466
 21
175.0686335511
 31
0.0
  0
LINE
  5
22C
330
1F
100
AcDbEntity
  8
0
  6
Continuous
 62
     7
370
    15
100
AcDbLine
 10
82.6787852466
 20
175.0686335511
 30
0.0
 11
87.6787851349
 21
175.0686335511
 31
0.0
  0
LINE
  5
22D
330
1F
100
AcDbEntity
  8
0
  6
Continuous
 62
     7
370
    15
100
AcDbLine
 10
94.9421847954
 20
173.8686334941
 30
0.0
 11
87.6787851349
 21
173.8686334941
 31
0.0
  0
LINE
  5
22E
330
1F
100
AcDbEntity
  8
0
  6
Continuous
 62
     7
370
    15
100
AcDbLine
 10
94.9421847954
 20
175.0686335511
 30
0.0
 11
87.6787851349
 21
175.0686335511
 31
0.0
  0
LINE
  5
22F
330
1F
100
AcDbEntity
  8
0
  6
Continuous
 62
     7
370
    15
100
AcDbLine
 10
95.6787855148
 20
173.1320334732
 30
0.0
 11
95.6787855148
 21
173.1052335019
 31
0.0
  0
LINE
  5
230
330
1F
100
AcDbEntity
  8
0
  6
Continuous
 62
     7
370
    15
100
AcDbLine
 10
96.878785339
 20
173.1320334732
 30
0.0
 11
96.878785339
 21
173.1052335019
 31
0.0
  0
LINE
  5
231
330
1F
100
AcDbEntity
  8
0
  6
Continuous
 62
     7
370
    15
100
AcDbLine
 10
96.878785339
 20
173.1052335019
 30
0.0
 11
95.6787855148
 21
173.1052335019
 31
0.0
  0
ARC
  5
232
330
1F
100
AcDbEntity
  8
0
  6
Continuous
 62
     7
370
    15
100
AcDbCircle
 10
97.6153852466
 20
173.1052334941
 30
0.0
 40
0.7366000000000099
100
AcDbArc
 50
180.0
 51
270.0
  0
LINE
  5
233
330
1F
100
AcDbEntity
  8
0
  6
Continuous
 62
     7
370
    15
100
AcDbLine
 10
97.6153851271
 20
172.368633481
 30
0.0
 11
97.6153851271
 21
171.168633424
 31
0.0
  0
ARC
  5
234
330
1F
100
AcDbEntity
  8
0
  6
Continuous
 62
     7
370
    15
100
AcDbCircle
 10
97.6153852466
 20
173.1052334941
 30
0.0
 40
1.936599999999999
100
AcDbArc
 50
180.0
 51
270.0
  0
LINE
  5
235
330
1F
100
AcDbEntity
  8
0
  6
Continuous
 62
     7
370
    15
100
AcDbLine
 10
112.3787850857
 20
171.168633424
 30
0.0
 11
112.3787850857
 21
172.368633481
 31
0.0
  0
LINE
  5
236
330
1F
100
AcDbEntity
  8
0
  6
Continuous
 62
     7
370
    15
100
AcDbLine
 10
112.3787850857
 20
171.168633424
 30
0.0
 11
97.6153851271
 21
171.168633424
 31
0.0
  0
LINE
  5
237
330
1F
100
AcDbEntity
  8
0
  6
Continuous
 62
     7
370
    15
100
AcDbLine
 10
112.3787850857
 20
172.368633481
 30
0.0
 11
97.6153851271
 21
172.368633481
 31
0.0
  0
LINE
  5
238
330
1F
100
AcDbEntity
  8
0
  6
Continuous
 62
     7
370
    15
100
AcDbLine
 10
117.3787840426
 20
172.368633481
 30
0.0
 11
117.3787840426
 21
171.168633424
 31
0.0
  0
LINE
  5
239
330
1F
100
AcDbEntity
  8
0
  6
Continuous
 62
     7
370
    15
100
AcDbLine
 10
117.3787840426
 20
171.168633424
 30
0.0
 11
112.3787850857
 21
171.168633424
 31
0.0
  0
LINE
  5
23A
330
1F
100
AcDbEntity
  8
0
  6
Continuous
 62
     7
370
    15
100
AcDbLine
 10
112.3787850857
 20
172.368633481
 30
0.0
 11
117.3787840426
 21
172.368633481
 31
0.0
  0
DIMENSION
  5
23B
330
1F
100
AcDbEntity
  8
0
  6
Continuous
 62
     7
370
     0
100
AcDbDimension
  2
_D_15
 10
72.6787852466
 20
175.0686334941
 30
0.0
 11
72.6787852466
 21
183.636923406
 31
0.0
 70
   160
  1
<>
 71
     2
 42
-1.0
  3
SLDDIMSTYLE6
100
AcDbAlignedDimension
 13
97.6153852466
 23
171.1686334941
 33
0.0
 14
82.6787852466
 24
175.0686334941
 34
0.0
 50
90.0
100
AcDbRotatedDimension
  0
DIMENSION
  5
247
330
1F
100
AcDbEntity
  8
0
  6
Continuous
 62
     7
370
     0
100
AcDbDimension
  2
_D_16
 10
127.3787852466
 20
171.1686334941
 30
0.0
 11
127.3787852466
 21
179.22813514
 31
0.0
 70
   160
  1
t= <>
 71
     2
 42
-1.0
  3
SLDDIMSTYLE9
100
AcDbAlignedDimension
 13
117.3787852466
 23
172.3686334941
 33
0.0
 14
117.3787852466
 24
171.1686334941
 34
0.0
 50
90.0
100
AcDbRotatedDimension
  0
DIMENSION
  5
255
330
1F
100
AcDbEntity
  8
0
  6
Continuous
 62
     7
370
     0
100
AcDbDimension
  2
_D_17
 10
82.6787852466
 20
185.0686334941
 30
0.0
 11
89.7787852466
 21
185.0686334941
 31
0.0
 70
   160
  1
<>
 71
     2
 42
-1.0
  3
SLDDIMSTYLE9
100
AcDbAlignedDimension
 13
96.8787852466
 23
173.1320334941
 33
0.0
 14
82.6787852466
 24
175.0686334941
 34
0.0
100
AcDbRotatedDimension
  0
DIMENSION
  5
261
330
1F
100
AcDbEntity
  8
0
  6
Continuous
 62
     7
370
     0
100
AcDbDimension
  2
_D_18
 10
117.3787852466
 20
185.0686334941
 30
0.0
 11
107.1287852466
 21
185.0686334941
 31
0.0
 70
   160
  1
<>
 71
     2
 42
-1.0
  3
SLDDIMSTYLE6
100
AcDbAlignedDimension
 13
96.8787852466
 23
173.1320334941
 33
0.0
 14
117.3787852466
 24
172.3686334941
 34
0.0
100
AcDbRotatedDimension
  0
LINE
  5
26D
330
1F
100
AcDbEntity
  8
0
  6
Continuous
 62
     7
370
    15
100
AcDbLine
 10
168.2219645964
 20
136.1394198655
 30
0.0
 11
167.0219645394
 21
136.1394198655
 31
0.0
  0
LINE
  5
26E
330
1F
100
AcDbEntity
  8
0
  6
Continuous
 62
     7
370
    15
100
AcDbLine
 10
167.0219645394
 20
69.1394181965
 30
0.0
 11
168.2219645964
 21
69.1394181965
 31
0.0
  0
LINE
  5
26F
330
1F
100
AcDbEntity
  8
0
  6
Continuous
 62
     7
370
    15
100
AcDbLine
 10
167.0219645394
 20
69.1394181965
 30
0.0
 11
167.0219645394
 21
136.1394198655
 31
0.0
  0
LINE
  5
270
330
1F
100
AcDbEntity
  8
0
  6
Continuous
 62
     7
370
    15
100
AcDbLine
 10
168.2219645964
 20
69.1394181965
 30
0.0
 11
168.2219645964
 21
136.1394198655
 31
0.0
  0
LINE
  5
271
330
1F
100
AcDbEntity
  8
0
  6
Continuous
 62
     7
370
    15
100
AcDbLine
 10
167.0219645394
 20
141.1394188224
 30
0.0
 11
168.2219645964
 21
141.1394188224
 31
0.0
  0
LINE
  5
272
330
1F
100
AcDbEntity
  8
0
  6
Continuous
 62
     7
370
    15
100
AcDbLine
 10
167.0219645394
 20
136.1394198655
 30
0.0
 11
167.0219645394
 21
141.1394188224
 31
0.0
  0
LINE
  5
273
330
1F
100
AcDbEntity
  8
0
  6
Continuous
 62
     7
370
    15
100
AcDbLine
 10
168.2219645964
 20
141.1394188224
 30
0.0
 11
168.2219645964
 21
136.1394198655
 31
0.0
  0
LINE
  5
274
330
1F
100
AcDbEntity
  8
0
  6
Continuous
 62
     7
370
    15
100
AcDbLine
 10
168.2219645964
 20
64.1394192396
 30
0.0
 11
167.0219645394
 21
64.1394192396
 31
0.0
  0
LINE
  5
275
330
1F
100
AcDbEntity
  8
0
  6
Continuous
 62
     7
370
    15
100
AcDbLine
 10
167.0219645394
 20
64.1394192396
 30
0.0
 11
167.0219645394
 21
69.1394181965
 31
0.0
  0
LINE
  5
276
330
1F
100
AcDbEntity
  8
0
  6
Continuous
 62
     7
370
    15
100
AcDbLine
 10
168.2219645964
 20
69.1394181965
 30
0.0
 11
168.2219645964
 21
64.1394192396
 31
0.0
  0
LINE
  5
277
330
1F
100
AcDbEntity
  8
0
  6
Continuous
 62
     7
370
    15
100
AcDbLine
 10
168.2219645964
 20
64.1394192396
 30
0.0
 11
168.9585646173
 21
64.1394192396
 31
0.0
  0
LINE
  5
278
330
1F
100
AcDbEntity
  8
0
  6
Continuous
 62
     7
370
    15
100
AcDbLine
 10
168.9585646173
 20
141.1394188224
 30
0.0
 11
168.2219645964
 21
141.1394188224
 31
0.0
  0
LINE
  5
279
330
1F
100
AcDbEntity
  8
0
  6
Continuous
 62
     7
370
    15
100
AcDbLine
 10
168.9585646173
 20
64.1394192396
 30
0.0
 11
168.9585646173
 21
141.1394188224
 31
0.0
  0
LINE
  5
27A
330
1F
100
AcDbEntity
  8
0
  6
Continuous
 62
     7
370
    15
100
AcDbLine
 10
168.9853645885
 20
141.1394188224
 30
0.0
 11
168.9853645885
 21
64.1394192396
 31
0.0
  0
LINE
  5
27B
330
1F
100
AcDbEntity
  8
0
  6
Continuous
 62
     7
370
    15
100
AcDbLine
 10
170.9219646664
 20
141.1394188224
 30
0.0
 11
170.9219646664
 21
64.1394192396
 31
0.0
  0
LINE
  5
27C
330
1F
100
AcDbEntity
  8
0
  6
Continuous
 62
     7
370
    15
100
AcDbLine
 10
168.9853645885
 20
141.1394188224
 30
0.0
 11
170.9219646664
 21
141.1394188224
 31
0.0
  0
LINE
  5
27D
330
1F
100
AcDbEntity
  8
0
  6
Continuous
 62
     7
370
    15
100
AcDbLine
 10
170.9219646664
 20
64.1394192396
 30
0.0
 11
168.9853645885
 21
64.1394192396
 31
0.0
  0
LINE
  5
27E
330
1F
100
AcDbEntity
  8
0
  6
Continuous
 62
     7
370
    15
100
AcDbLine
 10
168.9585646173
 20
64.1394192396
 30
0.0
 11
168.9853645885
 21
64.1394192396
 31
0.0
  0
LINE
  5
27F
330
1F
100
AcDbEntity
  8
0
  6
Continuous
 62
     7
370
    15
100
AcDbLine
 10
168.9853645885
 20
141.1394188224
 30
0.0
 11
168.9585646173
 21
141.1394188224
 31
0.0
  0
LINE
  5
280
330
1F
100
AcDbEntity
  8
0
  6
Continuous
 62
     7
370
    15
100
AcDbLine
 10
254.1897568757
 20
169.3613591426
 30
0.0
 11
199.7425347243
 21
137.9296468374
 31
0.0
  0
LINE
  5
281
330
1F
100
AcDbEntity
  8
0
  6
Continuous
 62
     7
370
    15
100
AcDbLine
 10
199.7887394945
 20
135.6445941721
 30
0.0
 11
201.2971686383
 21
136.5153917814
 31
0.0
  0
LINE
  5
282
330
1F
100
AcDbEntity
  8
0
  6
Continuous
 62
     7
370
    15
100
AcDbLine
 10
192.2200526971
 20
141.7262900563
 30
0.0
 11
192.2200526971
 21
140.746441082
 31
0.0
  0
LINE
  5
283
330
1F
100
AcDbEntity
  8
0
  6
Continuous
 62
     7
370
    15
100
AcDbLine
 10
201.8668564403
 20
148.0126325173
 30
0.0
 11
201.8668564403
 21
147.032783543
 31
0.0
  0
LINE
  5
284
330
1F
100
AcDbEntity
  8
0
  6
Continuous
 62
     7
370
    15
100
AcDbLine
 10
267.0617445319
 20
160.2181328391
 30
0.0
 11
267.0617445319
 21
161.1979818134
 31
0.0
  0
LINE
  5
285
330
1F
100
AcDbEntity
  8
0
  6
Continuous
 62
     7
370
    15
100
AcDbLine
 10
237.2221954996
 20
168.4228353129
 30
0.0
 11
237.2221954996
 21
167.4429863386
 31
0.0
  0
LINE
  5
286
330
1F
100
AcDbEntity
  8
0
  6
Continuous
 62
     7
370
    15
100
AcDbLine
 10
218.2211240984
 20
131.8072897878
 30
0.0
 11
218.2211240984
 21
130.8274408135
 31
0.0
  0
ARC
  5
287
330
1F
100
AcDbEntity
  8
0
  6
Continuous
 62
     7
370
    15
100
AcDbCircle
 10
214.6855901924
 20
137.6068950881
 30
0.0
 40
7.645979352640668
100
AcDbArc
 50
242.4576367802
 51
297.5423632198
  0
LINE
  5
288
330
1F
100
AcDbEntity
  8
0
  6
Continuous
 62
     7
370
    15
100
AcDbLine
 10
211.1500562865
 20
130.8274408135
 30
0.0
 11
211.1500562865
 21
131.8072897878
 31
0.0
  0
ARC
  5
289
330
1F
100
AcDbEntity
  8
0
  6
Continuous
 62
     7
370
    15
100
AcDbCircle
 10
214.6855901924
 20
138.5867440624
 30
0.0
 40
7.645979352640832
100
AcDbArc
 50
242.4576367802
 51
297.5423632198
  0
LINE
  5
28A
330
1F
100
AcDbEntity
  8
0
  6
Continuous
 62
     7
370
    15
100
AcDbLine
 10
200.7107560331
 20
137.8337695468
 30
0.0
 11
255.1579781845
 21
169.265481852
 31
0.0
  0
LINE
  5
28B
330
1F
100
AcDbEntity
  8
0
  6
Continuous
 62
     7
370
    15
100
AcDbLine
 10
265.5972784379
 20
163.239002093
 30
0.0
 11
255.1579781845
 21
169.265481852
 31
0.0
  0
LWPOLYLINE
  5
28C
330
1F
100
AcDbEntity
  8
0
  6
Continuous
 62
     7
370
    15
100
AcDbPolyline
 90
       15
 70
   128
 43
0.0
 10
265.5972784379
 20
159.1569615338
 10
265.9709019443
 20
159.3983168073
 10
266.2953655281
 20
159.6623039124
 10
266.5665888714
 20
159.9456030581
 10
266.7811611835
 20
160.2446515933
 10
266.9363840928
 20
160.5556888091
 10
267.0303055814
 20
160.8748032322
 10
267.0617445319
 20
161.1979818134
 10
267.0303055814
 20
161.5211603946
 10
266.9363840928
 20
161.8402748177
 10
266.7811611835
 20
162.1513120335
 10
266.5665888714
 20
162.4503605687
 10
266.2953655281
 20
162.7336597144
 10
265.9709019443
 20
162.9976468195
 10
265.5972784379
 20
163.239002093
  0
LINE
  5
28D
330
1F
100
AcDbEntity
  8
0
  6
Continuous
 62
     7
370
    15
100
AcDbLine
 10
218.2211240984
 20
131.8072897878
 30
0.0
 11
265.5972784379
 21
159.1569615338
 31
0.0
  0
LINE
  5
28E
330
1F
100
AcDbEntity
  8
0
  6
Continuous
 62
     7
370
    15
100
AcDbLine
 10
200.7107560331
 20
137.8337695468
 30
0.0
 11
211.1500562865
 21
131.8072897878
 31
0.0
  0
LWPOLYLINE
  5
28F
330
1F
100
AcDbEntity
  8
0
  6
Continuous
 62
     7
370
    15
100
AcDbPolyline
 90
       34
 70
   128
 43
0.0
 10
241.4849371994
 20
153.0747211008
 10
241.6786051954
 20
153.2101289481
 10
241.8243828352
 20
153.3642484961
 10
241.917001335
 20
153.5315094627
 10
241.953113221
 20
153.7058666008
 10
241.9314133154
 20
153.8810181891
 10
241.8526859095
 20
154.0506337929
 10
241.7197764167
 20
154.2085830623
 10
241.5374885325
 20
154.3491572993
 10
241.3124106159
 20
154.4672757845
 10
241.0526775693
 20
154.5586694082
 10
240.7676768217
 20
154.6200349667
 10
240.4677090426
 20
154.6491545489
 10
240.1636158492
 20
154.6449756971
 10
239.8663879619
 20
154.607649446
 10
239.5867679707
 20
154.5385248636
 10
239.3348620709
 20
154.4401002922
 10
239.1197747979
 20
154.3159330525
 10
238.9492799662
 20
154.1705108719
 10
238.8295397032
 20
154.009089687
 10
238.764881734
 20
153.8375036799
 10
238.7576429661
 20
153.6619544161
 10
238.8080850274
 20
153.4887867032
 10
238.9143848104
 20
153.3242592737
 10
239.072700364
 20
153.1743185774
 10
239.2773097516
 20
153.0443838619
 10
239.5208178567
 20
152.9391513063
 10
239.7944236621
 20
152.8624242893
 10
240.0882383411
 20
152.8169759252
 10
240.3916426656
 20
152.8044488364
 10
240.6936708128
 20
152.8252957844
 10
240.9834066986
 20
152.8787633063
 10
241.2503785131
 20
152.9629189464
 10
241.4849371994
 20
153.0747211008
  0
LWPOLYLINE
  5
290
330
1F
100
AcDbEntity
  8
0
  6
Continuous
 62
     7
370
    15
100
AcDbPolyline
 90
       34
 70
   128
 43
0.0
 10
228.757015138
 20
145.7270480944
 10
228.9506831341
 20
145.8624559417
 10
229.0964607739
 20
146.0165754897
 10
229.1890792737
 20
146.1838364563
 10
229.2251911596
 20
146.3581935944
 10
229.2034912541
 20
146.5333451827
 10
229.1247638481
 20
146.7029607865
 10
228.9918543554
 20
146.8609100559
 10
228.8095664711
 20
147.0014842929
 10
228.5844885546
 20
147.1196027781
 10
228.3247555079
 20
147.2109964018
 10
228.0397547603
 20
147.2723619603
 10
227.7397869813
 20
147.3014815425
 10
227.4356937879
 20
147.2973026907
 10
227.1384659005
 20
147.2599764396
 10
226.8588459094
 20
147.1908518572
 10
226.6069400095
 20
147.0924272858
 10
226.3918527365
 20
146.9682600461
 10
226.2213579048
 20
146.8228378655
 10
226.1016176418
 20
146.6614166806
 10
226.0369596727
 20
146.4898306735
 10
226.0297209048
 20
146.3142814097
 10
226.0801629661
 20
146.1411136968
 10
226.1864627491
 20
145.9765862673
 10
226.3447783027
 20
145.826645571
 10
226.5493876902
 20
145.6967108555
 10
226.7928957954
 20
145.5914782999
 10
227.0665016008
 20
145.5147512829
 10
227.3603162797
 20
145.4693029188
 10
227.6637206042
 20
145.45677583
 10
227.9657487514
 20
145.477622778
 10
228.2554846372
 20
145.5310902999
 10
228.5224564517
 20
145.61524594
 10
228.757015138
 20
145.7270480944
  0
LWPOLYLINE
  5
291
330
1F
100
AcDbEntity
  8
0
  6
Continuous
 62
     7
370
    15
100
AcDbPolyline
 90
       67
 70
   128
 43
0.0
 10
222.3223434292
 20
137.1955833258
 10
222.7384275299
 20
137.4598124987
 10
223.1091196631
 20
137.7456777058
 10
223.4310627837
 20
138.0505901073
 10
223.7013413248
 20
138.3717883695
 10
223.9175076021
 20
138.7063636711
 10
224.0776039803
 20
139.0512860464
 10
224.1801806019
 20
139.4034318248
 10
224.224308517
 20
139.7596119198
 10
224.2095880965
 20
140.1166007093
 10
224.1361526507
 20
140.4711652474
 10
224.0046672224
 20
140.8200945428
 10
223.816322564
 20
141.1602286378
 10
223.5728243539
 20
141.4884872253
 10
223.2763777497
 20
141.8018975448
 10
222.9296674175
 20
142.0976213038
 10
222.53583322
 20
142.3729803822
 10
222.0984417806
 20
142.6254810855
 10
221.6214541838
 20
142.8528367284
 10
221.1091901033
 20
143.0529883428
 10
220.5662886819
 20
143.2241233247
 10
219.9976665189
 20
143.3646918493
 10
219.4084731447
 20
143.4734209062
 10
218.8040443857
 20
143.5493258283
 10
218.1898540423
 20
143.5917192088
 10
217.5714643175
 20
143.6002171267
 10
216.9544754443
 20
143.5747426235
 10
216.3444749694
 20
143.5155264003
 10
215.7469871518
 20
143.4231047284
 10
215.1674229335
 20
143.2983145928
 10
214.6110309378
 20
143.1422861122
 10
214.082849937
 20
142.9564323047
 10
213.5876632197
 20
142.7424362912
 10
213.1299552738
 20
142.5022360527
 10
212.7138711732
 20
142.2380068797
 10
212.3431790399
 20
141.9521416727
 10
212.0212359193
 20
141.6472292711
 10
211.7509573782
 20
141.326031009
 10
211.5347911009
 20
140.9914557074
 10
211.3746947227
 20
140.6465333321
 10
211.2721181011
 20
140.2943875536
 10
211.227990186
 20
139.9382074586
 10
211.2427106066
 20
139.5812186692
 10
211.3161460524
 20
139.2266541311
 10
211.4476314806
 20
138.8777248357
 10
211.635976139
 20
138.5375907407
 10
211.8794743491
 20
138.2093321532
 10
212.1759209534
 20
137.8959218337
 10
212.5226312855
 20
137.6001980747
 10
212.916465483
 20
137.3248389963
 10
213.3538569225
 20
137.0723382929
 10
213.8308445192
 20
136.8449826501
 10
214.3431085997
 20
136.6448310357
 10
214.8860100211
 20
136.4736960538
 10
215.4546321841
 20
136.3331275292
 10
216.0438255584
 20
136.2243984723
 10
216.6482543174
 20
136.1484935502
 10
217.2624446607
 20
136.1061001697
 10
217.8808343856
 20
136.0976022518
 10
218.4978232588
 20
136.123076755
 10
219.1078237336
 20
136.1822929782
 10
219.7053115513
 20
136.2747146501
 10
220.2848757696
 20
136.3995047857
 10
220.8412677652
 20
136.5555332663
 10
221.3694487661
 20
136.7413870738
 10
221.8646354833
 20
136.9553830873
 10
222.3223434292
 20
137.1955833258
  0
LWPOLYLINE
  5
292
330
1F
100
AcDbEntity
  8
0
  6
Continuous
 62
     7
370
    15
100
AcDbPolyline
 90
       67
 70
   128
 43
0.0
 10
247.0710807708
 20
162.0960307364
 10
246.6549966701
 20
161.8318015635
 10
246.2843045369
 20
161.5459363565
 10
245.9623614163
 20
161.2410239549
 10
245.6920828752
 20
160.9198256927
 10
245.4759165979
 20
160.5852503911
 10
245.3158202197
 20
160.2403280159
 10
245.2132435981
 20
159.8881822374
 10
245.169115683
 20
159.5320021424
 10
245.1838361035
 20
159.175013353
 10
245.2572715493
 20
158.8204488148
 10
245.3887569776
 20
158.4715195194
 10
245.577101636
 20
158.1313854245
 10
245.8205998461
 20
157.8031268369
 10
246.1170464503
 20
157.4897165175
 10
246.4637567825
 20
157.1939927585
 10
246.85759098
 20
156.91863368
 10
247.2949824194
 20
156.6661329767
 10
247.7719700162
 20
156.4387773339
 10
248.2842340967
 20
156.2386257195
 10
248.8271355181
 20
156.0674907375
 10
249.3957576811
 20
155.9269222129
 10
249.9849510553
 20
155.818193156
 10
250.5893798143
 20
155.7422882339
 10
251.2035701577
 20
155.6998948535
 10
251.8219598825
 20
155.6913969356
 10
252.4389487558
 20
155.7168714387
 10
253.0489492306
 20
155.7760876619
 10
253.6464370482
 20
155.8685093338
 10
254.2260012665
 20
155.9932994695
 10
254.7823932622
 20
156.1493279501
 10
255.310574263
 20
156.3351817576
 10
255.8057609803
 20
156.5491777711
 10
256.2634689262
 20
156.7893780096
 10
256.6795530268
 20
157.0536071825
 10
257.0502451601
 20
157.3394723895
 10
257.3721882807
 20
157.6443847911
 10
257.6424668218
 20
157.9655830533
 10
257.8586330991
 20
158.3001583548
 10
258.0187294773
 20
158.6450807301
 10
258.1213060989
 20
158.9972265086
 10
258.165434014
 20
159.3534066036
 10
258.1507135934
 20
159.710395393
 10
258.0772781476
 20
160.0649599311
 10
257.9457927194
 20
160.4138892265
 10
257.757448061
 20
160.7540233215
 10
257.5139498509
 20
161.082281909
 10
257.2175032466
 20
161.3956922285
 10
256.8707929145
 20
161.6914159875
 10
256.476958717
 20
161.9667750659
 10
256.0395672775
 20
162.2192757693
 10
255.5625796808
 20
162.4466314121
 10
255.0503156003
 20
162.6467830265
 10
254.5074141789
 20
162.8179180084
 10
253.9387920159
 20
162.958486533
 10
253.3495986416
 20
163.06721559
 10
252.7451698826
 20
163.143120512
 10
252.1309795393
 20
163.1855138925
 10
251.5125898144
 20
163.1940118104
 10
250.8956009412
 20
163.1685373072
 10
250.2856004664
 20
163.1093210841
 10
249.6881126487
 20
163.0168994122
 10
249.1085484304
 20
162.8921092765
 10
248.5521564348
 20
162.7360807959
 10
248.0239754339
 20
162.5502269884
 10
247.5287887167
 20
162.3362309749
 10
247.0710807708
 20
162.0960307364
  0
LWPOLYLINE
  5
293
330
1F
100
AcDbEntity
  8
0
  6
Continuous
 62
     7
370
    15
100
AcDbPolyline
 90
       34
 70
   128
 43
0.0
 10
245.0204711053
 20
151.0337008212
 10
245.2141391014
 20
151.1691086686
 10
245.3599167412
 20
151.3232282166
 10
245.452535241
 20
151.4904891832
 10
245.4886471269
 20
151.6648463213
 10
245.4669472214
 20
151.8399979096
 10
245.3882198154
 20
152.0096135134
 10
245.2553103227
 20
152.1675627828
 10
245.0730224384
 20
152.3081370197
 10
244.8479445218
 20
152.4262555049
 10
244.5882114752
 20
152.5176491286
 10
244.3032107276
 20
152.5790146872
 10
244.0032429485
 20
152.6081342693
 10
243.6991497552
 20
152.6039554176
 10
243.4019218678
 20
152.5666291665
 10
243.1223018767
 20
152.497504584
 10
242.8703959768
 20
152.3990800127
 10
242.6553087038
 20
152.2749127729
 10
242.4848138721
 20
152.1294905924
 10
242.3650736091
 20
151.9680694074
 10
242.3004156399
 20
151.7964834004
 10
242.293176872
 20
151.6209341365
 10
242.3436189334
 20
151.4477664236
 10
242.4499187164
 20
151.2832389941
 10
242.6082342699
 20
151.1332982979
 10
242.8128436575
 20
151.0033635823
 10
243.0563517627
 20
150.8981310267
 10
243.3299575681
 20
150.8214040097
 10
243.623772247
 20
150.7759556457
 10
243.9271765715
 20
150.7634285568
 10
244.2292047187
 20
150.7842755049
 10
244.5189406045
 20
150.8377430267
 10
244.785912419
 20
150.9218986669
 10
245.0204711053
 20
151.0337008212
  0
LWPOLYLINE
  5
294
330
1F
100
AcDbEntity
  8
0
  6
Continuous
 62
     7
370
    15
100
AcDbPolyline
 90
       34
 70
   128
 43
0.0
 10
232.292549044
 20
143.6860278148
 10
232.48621704
 20
143.8214356622
 10
232.6319946798
 20
143.9755552102
 10
232.7246131796
 20
144.1428161768
 10
232.7607250656
 20
144.3171733149
 10
232.73902516
 20
144.4923249032
 10
232.6602977541
 20
144.661940507
 10
232.5273882613
 20
144.8198897764
 10
232.3451003771
 20
144.9604640133
 10
232.1200224605
 20
145.0785824985
 10
231.8602894139
 20
145.1699761222
 10
231.5752886662
 20
145.2313416807
 10
231.2753208872
 20
145.2604612629
 10
230.9712276938
 20
145.2562824112
 10
230.6739998064
 20
145.2189561601
 10
230.3943798153
 20
145.1498315776
 10
230.1424739155
 20
145.0514070063
 10
229.9273866425
 20
144.9272397665
 10
229.7568918108
 20
144.781817586
 10
229.6371515478
 20
144.620396401
 10
229.5724935786
 20
144.448810394
 10
229.5652548107
 20
144.2732611301
 10
229.615696872
 20
144.1000934172
 10
229.721996655
 20
143.9355659877
 10
229.8803122086
 20
143.7856252915
 10
230.0849215961
 20
143.6556905759
 10
230.3284297013
 20
143.5504580203
 10
230.6020355067
 20
143.4737310033
 10
230.8958501857
 20
143.4282826393
 10
231.1992545101
 20
143.4157555504
 10
231.5012826574
 20
143.4366024985
 10
231.7910185431
 20
143.4900700203
 10
232.0579903577
 20
143.5742256605
 10
232.292549044
 20
143.6860278148
  0
LINE
  5
295
330
1F
100
AcDbEntity
  8
0
  6
Continuous
 62
     7
370
    15
100
AcDbLine
 10
265.5972784379
 20
158.1771125596
 30
0.0
 11
265.5972784379
 21
159.1569615338
 31
0.0
  0
LINE
  5
296
330
1F
100
AcDbEntity
  8
0
  6
Continuous
 62
     7
370
    15
100
AcDbLine
 10
218.2211240984
 20
130.8274408135
 30
0.0
 11
265.5972784379
 21
158.1771125596
 31
0.0
  0
LINE
  5
297
330
1F
100
AcDbEntity
  8
0
  6
Continuous
 62
     7
370
    15
100
AcDbLine
 10
200.7107560331
 20
136.8539205726
 30
0.0
 11
200.7107560331
 21
137.8337695468
 31
0.0
  0
LINE
  5
298
330
1F
100
AcDbEntity
  8
0
  6
Continuous
 62
     7
370
    15
100
AcDbLine
 10
200.7107560331
 20
136.8539205726
 30
0.0
 11
211.1500562865
 21
130.8274408135
 31
0.0
  0
LWPOLYLINE
  5
299
330
1F
100
AcDbEntity
  8
0
  6
Continuous
 62
     7
370
    15
100
AcDbPolyline
 90
       25
 70
   128
 43
0.0
 10
213.1299552738
 20
141.5223870784
 10
213.5876632197
 20
141.7625873169
 10
214.082849937
 20
141.9765833304
 10
214.6110309378
 20
142.1624371379
 10
215.1674229335
 20
142.3184656185
 10
215.7469871518
 20
142.4432557542
 10
216.3444749694
 20
142.5356774261
 10
216.9544754443
 20
142.5948936492
 10
217.5714643175
 20
142.6203681524
 10
218.1898540423
 20
142.6118702345
 10
218.8040443857
 20
142.569476854
 10
219.4084731447
 20
142.4935719319
 10
219.9976665189
 20
142.384842875
 10
220.5662886819
 20
142.2442743504
 10
221.1091901033
 20
142.0731393685
 10
221.6214541838
 20
141.8729877541
 10
222.0984417806
 20
141.6456321113
 10
222.53583322
 20
141.3931314079
 10
222.9296674175
 20
141.1177723295
 10
223.2763777497
 20
140.8220485705
 10
223.5728243539
 20
140.508638251
 10
223.816322564
 20
140.1803796635
 10
224.0046672224
 20
139.8402455685
 10
224.1361526507
 20
139.4913162731
 10
224.1705085843
 20
139.3589852021
  0
ARC
  5
29A
330
1F
100
AcDbEntity
  8
0
  6
Continuous
 62
     7
370
    15
100
AcDbCircle
 10
214.7815019906
 20
138.2403606407
 30
0.0
 40
3.674139912378392
100
AcDbArc
 50
116.7119725662
 51
162.2743875638
  0
ARC
  5
29B
330
1F
100
AcDbEntity
  8
0
  6
Continuous
 62
     7
370
    15
100
AcDbCircle
 10
254.5908477718
 20
168.4750415803
 30
0.0
 40
0.9728477414953658
100
AcDbArc
 50
54.3410619984
 51
114.3484795725
  0
ARC
  5
29C
330
1F
100
AcDbEntity
  8
0
  6
Continuous
 62
     7
370
    15
100
AcDbCircle
 10
200.1803840961
 20
137.1711456567
 30
0.0
 40
0.848743077345705
100
AcDbArc
 50
51.325810101
 51
188.6849416537
  0
LINE
  5
29D
330
1F
100
AcDbEntity
  8
0
  6
Continuous
 62
     7
370
    15
100
AcDbLine
 10
200.1899011781
 20
136.5531397181
 30
0.0
 11
199.3413730407
 21
137.0429845852
 31
0.0
  0
ARC
  5
29E
330
1F
100
AcDbEntity
  8
0
  6
Continuous
 62
     7
370
    15
100
AcDbCircle
 10
200.5074305571
 20
136.6046480913
 30
0.0
 40
0.3216799948258513
100
AcDbArc
 50
50.7967147643
 51
189.2140369905
  0
LINE
  5
29F
330
1F
100
AcDbEntity
  8
0
  6
Continuous
 62
     7
370
    15
100
AcDbLine
 10
200.1899011781
 20
136.5531397181
 30
0.0
 11
200.7108406936
 21
136.8538716991
 31
0.0
  0
LINE
  5
2A0
330
1F
100
AcDbEntity
  8
0
  6
Continuous
 62
     7
370
    15
100
AcDbLine
 10
200.1899011781
 20
136.5531397181
 30
0.0
 11
200.1899011781
 21
136.5312564244
 31
0.0
  0
LINE
  5
2A1
330
1F
100
AcDbEntity
  8
0
  6
Continuous
 62
     7
370
    15
100
AcDbLine
 10
199.3413730407
 20
137.0211012914
 30
0.0
 11
200.1899011781
 21
136.5312564244
 31
0.0
  0
LINE
  5
2A2
330
1F
100
AcDbEntity
  8
0
  6
Continuous
 62
     7
370
    15
100
AcDbLine
 10
199.3413730407
 20
137.0429845852
 30
0.0
 11
199.3413730407
 21
137.0211012914
 31
0.0
  0
LINE
  5
2A3
330
1F
100
AcDbEntity
  8
0
  6
Continuous
 62
     7
370
    15
100
AcDbLine
 10
200.7297942355
 20
136.8429300523
 30
0.0
 11
200.1899011781
 21
136.5312564244
 31
0.0
  0
ARC
  5
2A4
330
1F
100
AcDbEntity
  8
0
  6
Continuous
 62
     7
370
    15
100
AcDbCircle
 10
199.3508901227
 20
136.4030953528
 30
0.0
 40
0.8487430773457245
100
AcDbArc
 50
231.325810101
 51
8.6849416537
  0
LINE
  5
2A5
330
1F
100
AcDbEntity
  8
0
  6
Continuous
 62
     7
370
    15
100
AcDbLine
 10
198.8205181857
 20
136.720320437
 30
0.0
 11
198.8205181857
 21
135.7404714627
 31
0.0
  0
ARC
  5
2A6
330
1F
100
AcDbEntity
  8
0
  6
Continuous
 62
     7
370
    15
100
AcDbCircle
 10
199.0238436616
 20
136.9695929182
 30
0.0
 40
0.3216799948258281
100
AcDbArc
 50
230.7967147643
 51
9.2140369905
  0
LINE
  5
2A7
330
1F
100
AcDbEntity
  8
0
  6
Continuous
 62
     7
370
    15
100
AcDbLine
 10
199.3413730338
 20
137.0210035406
 30
0.0
 11
198.8205181857
 21
136.720320437
 31
0.0
  0
ARC
  5
2A8
330
1F
100
AcDbEntity
  8
0
  6
Continuous
 62
     7
370
    15
100
AcDbCircle
 10
244.5962070366
 20
164.3375278073
 30
0.0
 40
7.645979352640896
100
AcDbArc
 50
62.4576367802
 51
117.5423632198
  0
LINE
  5
2A9
330
1F
100
AcDbEntity
  8
0
  6
Continuous
 62
     7
370
    15
100
AcDbLine
 10
252.6813277319
 20
168.4905615333
 30
0.0
 11
248.1317409425
 21
171.1169820819
 31
0.0
  0
LINE
  5
2AA
330
1F
100
AcDbEntity
  8
0
  6
Continuous
 62
     7
370
    15
100
AcDbLine
 10
193.6845187912
 20
139.6852697767
 30
0.0
 11
198.8205181857
 21
136.720320437
 31
0.0
  0
LWPOLYLINE
  5
2AB
330
1F
100
AcDbEntity
  8
0
  6
Continuous
 62
     7
370
    15
100
AcDbPolyline
 90
       15
 70
   128
 43
0.0
 10
193.6845187912
 20
143.7673103358
 10
193.3108952848
 20
143.5259550624
 10
192.986431701
 20
143.2619679573
 10
192.7152083576
 20
142.9786688116
 10
192.5006360456
 20
142.6796202764
 10
192.3454131362
 20
142.3685830605
 10
192.2514916476
 20
142.0494686375
 10
192.2200526971
 20
141.7262900563
 10
192.2514916476
 20
141.403111475
 10
192.3454131362
 20
141.083997052
 10
192.5006360456
 20
140.7729598361
 10
192.7152083576
 20
140.4739113009
 10
192.986431701
 20
140.1906121552
 10
193.3108952848
 20
139.9266250501
 10
193.6845187912
 20
139.6852697767
  0
LINE
  5
2AC
330
1F
100
AcDbEntity
  8
0
  6
Continuous
 62
     7
370
    15
100
AcDbLine
 10
196.9372099846
 20
145.645048993
 30
0.0
 11
193.6845187912
 21
143.7673103358
 31
0.0
  0
ARC
  5
2AD
330
1F
100
AcDbEntity
  8
0
  6
Continuous
 62
     7
370
    15
100
AcDbCircle
 10
198.351423547
 20
142.9306214694
 30
0.0
 40
3.06073794709943
100
AcDbArc
 50
62.4805390039
 51
117.5194609961
  0
LINE
  5
2AE
330
1F
100
AcDbEntity
  8
0
  6
Continuous
 62
     7
370
    15
100
AcDbLine
 10
202.2405108435
 20
144.2163347973
 30
0.0
 11
199.7656371094
 21
145.645048993
 31
0.0
  0
LWPOLYLINE
  5
2AF
330
1F
100
AcDbEntity
  8
0
  6
Continuous
 62
     7
370
    15
100
AcDbPolyline
 90
       19
 70
   128
 43
0.0
 10
204.927516612
 20
145.7675102098
 10
205.1404026119
 20
145.621047898
 10
205.3059985232
 20
145.4554699294
 10
205.4192727977
 20
145.2758073069
 10
205.4767836542
 20
145.0875189883
 10
205.4767836542
 20
144.8963260188
 10
205.4192727977
 20
144.7080377002
 10
205.3059985232
 20
144.5283750777
 10
205.1404026119
 20
144.3627971091
 10
204.927516612
 20
144.2163347973
 10
204.6738089569
 20
144.0934383255
 10
204.3869884251
 20
143.9978418408
 10
204.0757699135
 20
143.932449994
 10
203.749609639
 20
143.8992496832
 10
203.4184178166
 20
143.8992496832
 10
203.0922575421
 20
143.932449994
 10
202.7810390305
 20
143.9978418408
 10
202.4942184987
 20
144.0934383255
 10
202.2405108435
 20
144.2163347973
  0
LINE
  5
2B0
330
1F
100
AcDbEntity
  8
0
  6
Continuous
 62
     7
370
    15
100
AcDbLine
 10
202.4526428779
 20
147.1962244055
 30
0.0
 11
204.927516612
 21
145.7675102098
 31
0.0
  0
ARC
  5
2B1
330
1F
100
AcDbEntity
  8
0
  6
Continuous
 62
     7
370
    15
100
AcDbCircle
 10
202.7711531566
 20
148.0126325173
 30
0.0
 40
0.8763395475856428
100
AcDbArc
 50
111.3125518932
 51
248.6874481068
  0
LINE
  5
2B2
330
1F
100
AcDbEntity
  8
0
  6
Continuous
 62
     7
370
    15
100
AcDbLine
 10
232.292549044
 20
166.0552517886
 30
0.0
 11
202.4526428779
 21
148.8290406291
 31
0.0
  0
ARC
  5
2B3
330
1F
100
AcDbEntity
  8
0
  6
Continuous
 62
     7
370
    15
100
AcDbCircle
 10
233.7067626063
 20
163.340824265
 30
0.0
 40
3.060737947099418
100
AcDbArc
 50
62.4805390039
 51
117.5194609961
  0
LINE
  5
2B4
330
1F
100
AcDbEntity
  8
0
  6
Continuous
 62
     7
370
    15
100
AcDbLine
 10
237.5958499029
 20
164.6265375929
 30
0.0
 11
235.1209761687
 21
166.0552517886
 31
0.0
  0
LWPOLYLINE
  5
2B5
330
1F
100
AcDbEntity
  8
0
  6
Continuous
 62
     7
370
    15
100
AcDbPolyline
 90
       19
 70
   128
 43
0.0
 10
240.2828556714
 20
166.1777130053
 10
240.4957416713
 20
166.0312506935
 10
240.6613375825
 20
165.865672725
 10
240.7746118571
 20
165.6860101025
 10
240.8321227135
 20
165.4977217838
 10
240.8321227135
 20
165.3065288144
 10
240.7746118571
 20
165.1182404958
 10
240.6613375825
 20
164.9385778732
 10
240.4957416713
 20
164.7729999047
 10
240.2828556714
 20
164.6265375929
 10
240.0291480162
 20
164.5036411211
 10
239.7423274844
 20
164.4080446364
 10
239.4311089728
 20
164.3426527895
 10
239.1049486983
 20
164.3094524788
 10
238.7737568759
 20
164.3094524788
 10
238.4475966014
 20
164.3426527895
 10
238.1363780898
 20
164.4080446364
 10
237.8495575581
 20
164.5036411211
 10
237.5958499029
 20
164.6265375929
  0
LINE
  5
2B6
330
1F
100
AcDbEntity
  8
0
  6
Continuous
 62
     7
370
    15
100
AcDbLine
 10
237.8079819372
 20
167.606427201
 30
0.0
 11
240.2828556714
 21
166.1777130053
 31
0.0
  0
ARC
  5
2B7
330
1F
100
AcDbEntity
  8
0
  6
Continuous
 62
     7
370
    15
100
AcDbCircle
 10
238.1264922159
 20
168.4228353129
 30
0.0
 40
0.8763395475856635
100
AcDbArc
 50
111.3125518932
 51
248.6874481068
  0
LINE
  5
2B8
330
1F
100
AcDbEntity
  8
0
  6
Continuous
 62
     7
370
    15
100
AcDbLine
 10
241.0606731307
 20
171.1169820819
 30
0.0
 11
237.8079819372
 21
169.2392434247
 31
0.0
  0
LINE
  5
2B9
330
1F
100
AcDbEntity
  8
0
  6
Continuous
 62
     7
370
    15
100
AcDbLine
 10
193.6845187912
 20
138.7054208024
 30
0.0
 11
198.8205181857
 21
135.7404714627
 31
0.0
  0
LINE
  5
2BA
330
1F
100
AcDbEntity
  8
0
  6
Continuous
 62
     7
370
    15
100
AcDbLine
 10
193.6845187912
 20
139.6852697767
 30
0.0
 11
193.6845187912
 21
138.7054208024
 31
0.0
  0
ARC
  5
2BB
330
1F
100
AcDbEntity
  8
0
  6
Continuous
 62
     7
370
    15
100
AcDbCircle
 10
194.6682388705
 20
140.9571559319
 30
0.0
 40
2.457237531766969
100
AcDbArc
 50
184.9193117152
 51
246.4008292424
  0
ARC
  5
2BC
330
1F
100
AcDbEntity
  8
0
  6
Continuous
 62
     7
370
    15
100
AcDbCircle
 10
231.1469248645
 20
141.9986137811
 30
0.0
 40
2.302914380909007
100
AcDbArc
 50
53.4750161796
 51
119.0182776115
  0
LWPOLYLINE
  5
2BD
330
1F
100
AcDbEntity
  8
0
  6
Continuous
 62
     7
370
    15
100
AcDbPolyline
 90
        3
 70
   128
 43
0.0
 10
229.8047984827
 20
143.8492298171
 10
229.8361393481
 20
143.8770239721
 10
230.0298073442
 20
144.0124318195
  0
ARC
  5
2BE
330
1F
100
AcDbEntity
  8
0
  6
Continuous
 62
     7
370
    15
100
AcDbCircle
 10
227.6113909586
 20
144.0396340607
 30
0.0
 40
2.302914380908836
100
AcDbArc
 50
53.4750161796
 51
119.0182776115
  0
LWPOLYLINE
  5
2BF
330
1F
100
AcDbEntity
  8
0
  6
Continuous
 62
     7
370
    15
100
AcDbPolyline
 90
        3
 70
   128
 43
0.0
 10
226.2692645767
 20
145.8902500967
 10
226.3006054422
 20
145.9180442516
 10
226.4942734382
 20
146.053452099
  0
LINE
  5
2C0
330
1F
100
AcDbEntity
  8
0
  6
Continuous
 62
     7
370
    15
100
AcDbLine
 10
204.927516612
 20
145.7675102098
 30
0.0
 11
204.927516612
 21
144.7876612355
 31
0.0
  0
LWPOLYLINE
  5
2C1
330
1F
100
AcDbEntity
  8
0
  6
Continuous
 62
     7
370
    15
100
AcDbPolyline
 90
        3
 70
   128
 43
0.0
 10
204.927516612
 20
144.7876612355
 10
205.1404026119
 20
144.6411989237
 10
205.2839448798
 20
144.5019980164
  0
LINE
  5
2C2
330
1F
100
AcDbEntity
  8
0
  6
Continuous
 62
     7
370
    15
100
AcDbLine
 10
202.4526428779
 20
147.1962244055
 30
0.0
 11
202.4526428779
 21
146.2163754312
 31
0.0
  0
LINE
  5
2C3
330
1F
100
AcDbEntity
  8
0
  6
Continuous
 62
     7
370
    15
100
AcDbLine
 10
202.4526428779
 20
146.2163754312
 30
0.0
 11
204.927516612
 21
144.7876612355
 31
0.0
  0
ARC
  5
2C4
330
1F
100
AcDbEntity
  8
0
  6
Continuous
 62
     7
370
    15
100
AcDbCircle
 10
243.8748469258
 20
149.3462867875
 30
0.0
 40
2.302914380908847
100
AcDbArc
 50
53.4750161796
 51
119.0182776115
  0
LWPOLYLINE
  5
2C5
330
1F
100
AcDbEntity
  8
0
  6
Continuous
 62
     7
370
    15
100
AcDbPolyline
 90
        3
 70
   128
 43
0.0
 10
242.532720544
 20
151.1969028235
 10
242.5640614095
 20
151.2246969785
 10
242.7577294055
 20
151.3601048259
  0
ARC
  5
2C6
330
1F
100
AcDbEntity
  8
0
  6
Continuous
 62
     7
370
    15
100
AcDbCircle
 10
202.8424089351
 20
147.1143989042
 30
0.0
 40
0.9789605392288252
100
AcDbArc
 50
184.7822660226
 51
246.537874935
  0
ARC
  5
2C7
330
1F
100
AcDbEntity
  8
0
  6
Continuous
 62
     7
370
    15
100
AcDbCircle
 10
240.3393130199
 20
151.3873070671
 30
0.0
 40
2.302914380908836
100
AcDbArc
 50
53.4750161796
 51
119.0182776115
  0
LWPOLYLINE
  5
2C8
330
1F
100
AcDbEntity
  8
0
  6
Continuous
 62
     7
370
    15
100
AcDbPolyline
 90
        3
 70
   128
 43
0.0
 10
238.9971866381
 20
153.2379231031
 10
239.0285275036
 20
153.265717258
 10
239.2221954996
 20
153.4011251054
  0
LWPOLYLINE
  5
2C9
330
1F
100
AcDbEntity
  8
0
  6
Continuous
 62
     7
370
    15
100
AcDbPolyline
 90
       25
 70
   128
 43
0.0
 10
247.0710807708
 20
161.1161817621
 10
247.5287887167
 20
161.3563820006
 10
248.0239754339
 20
161.5703780141
 10
248.5521564348
 20
161.7562318216
 10
249.1085484304
 20
161.9122603022
 10
249.6881126487
 20
162.0370504379
 10
250.2856004664
 20
162.1294721098
 10
250.8956009412
 20
162.188688333
 10
251.5125898144
 20
162.2141628361
 10
252.1309795393
 20
162.2056649182
 10
252.7451698826
 20
162.1632715378
 10
253.3495986416
 20
162.0873666157
 10
253.9387920159
 20
161.9786375588
 10
254.5074141789
 20
161.8380690342
 10
255.0503156003
 20
161.6669340522
 10
255.5625796808
 20
161.4667824378
 10
256.0395672775
 20
161.239426795
 10
256.476958717
 20
160.9869260917
 10
256.8707929145
 20
160.7115670132
 10
257.2175032466
 20
160.4158432542
 10
257.5139498509
 20
160.1024329348
 10
257.757448061
 20
159.7741743472
 10
257.9457927194
 20
159.4340402523
 10
258.0772781476
 20
159.0851109569
 10
258.1116340813
 20
158.9527798859
  0
ARC
  5
2CA
330
1F
100
AcDbEntity
  8
0
  6
Continuous
 62
     7
370
    15
100
AcDbCircle
 10
248.7226274876
 20
157.8341553244
 30
0.0
 40
3.674139912379078
100
AcDbArc
 50
116.7119725662
 51
162.2743875638
  0
ARC
  5
2CB
330
1F
100
AcDbEntity
  8
0
  6
Continuous
 62
     7
370
    15
100
AcDbCircle
 10
264.4934869236
 20
160.5150009463
 30
0.0
 40
2.585358353400392
100
AcDbArc
 50
295.2734871585
 51
353.4063718839
  0
LINE
  5
2CC
330
1F
100
AcDbEntity
  8
0
  6
Continuous
 62
     7
370
    15
100
AcDbLine
 10
240.2828556714
 20
166.1777130053
 30
0.0
 11
240.2828556714
 21
165.1978640311
 31
0.0
  0
LWPOLYLINE
  5
2CD
330
1F
100
AcDbEntity
  8
0
  6
Continuous
 62
     7
370
    15
100
AcDbPolyline
 90
        3
 70
   128
 43
0.0
 10
240.2828556714
 20
165.1978640311
 10
240.4957416713
 20
165.0514017193
 10
240.6392839391
 20
164.912200812
  0
LINE
  5
2CE
330
1F
100
AcDbEntity
  8
0
  6
Continuous
 62
     7
370
    15
100
AcDbLine
 10
237.8079819372
 20
167.606427201
 30
0.0
 11
237.8079819372
 21
166.6265782268
 31
0.0
  0
LINE
  5
2CF
330
1F
100
AcDbEntity
  8
0
  6
Continuous
 62
     7
370
    15
100
AcDbLine
 10
237.8079819372
 20
166.6265782268
 30
0.0
 11
240.2828556714
 21
165.1978640311
 31
0.0
  0
ARC
  5
2D0
330
1F
100
AcDbEntity
  8
0
  6
Continuous
 62
     7
370
    15
100
AcDbCircle
 10
238.1977479944
 20
167.5246016997
 30
0.0
 40
0.9789605392289126
100
AcDbArc
 50
184.7822660226
 51
246.537874935
  0
LINE
  5
2D1
330
1F
100
AcDbEntity
  8
0
  6
Continuous
 62
     7
370
    15
100
AcDbLine
 10
271.401609759
 20
144.3575973764
 30
0.0
 11
216.9543876076
 21
112.9258850713
 31
0.0
  0
LINE
  5
2D2
330
1F
100
AcDbEntity
  8
0
  6
Continuous
 62
     7
370
    15
100
AcDbLine
 10
217.0005923778
 20
110.640832406
 30
0.0
 11
218.5090215216
 21
111.5116300152
 31
0.0
  0
LINE
  5
2D3
330
1F
100
AcDbEntity
  8
0
  6
Continuous
 62
     7
370
    15
100
AcDbLine
 10
209.4319055804
 20
116.7225282901
 30
0.0
 11
209.4319055804
 21
115.7426793158
 31
0.0
  0
LINE
  5
2D4
330
1F
100
AcDbEntity
  8
0
  6
Continuous
 62
     7
370
    15
100
AcDbLine
 10
219.0787093236
 20
123.0088707511
 30
0.0
 11
219.0787093236
 21
122.0290217769
 31
0.0
  0
LINE
  5
2D5
330
1F
100
AcDbEntity
  8
0
  6
Continuous
 62
     7
370
    15
100
AcDbLine
 10
284.2735974152
 20
135.214371073
 30
0.0
 11
284.2735974152
 21
136.1942200472
 31
0.0
  0
LINE
  5
2D6
330
1F
100
AcDbEntity
  8
0
  6
Continuous
 62
     7
370
    15
100
AcDbLine
 10
254.4340483829
 20
143.4190735467
 30
0.0
 11
254.4340483829
 21
142.4392245724
 31
0.0
  0
LINE
  5
2D7
330
1F
100
AcDbEntity
  8
0
  6
Continuous
 62
     7
370
    15
100
AcDbLine
 10
235.4329769817
 20
106.8035280216
 30
0.0
 11
235.4329769817
 21
105.8236790474
 31
0.0
  0
ARC
  5
2D8
330
1F
100
AcDbEntity
  8
0
  6
Continuous
 62
     7
370
    15
100
AcDbCircle
 10
231.8974430757
 20
112.6031333219
 30
0.0
 40
7.645979352640706
100
AcDbArc
 50
242.4576367802
 51
297.5423632198
  0
LINE
  5
2D9
330
1F
100
AcDbEntity
  8
0
  6
Continuous
 62
     7
370
    15
100
AcDbLine
 10
228.3619091698
 20
105.8236790474
 30
0.0
 11
228.3619091698
 21
106.8035280216
 31
0.0
  0
ARC
  5
2DA
330
1F
100
AcDbEntity
  8
0
  6
Continuous
 62
     7
370
    15
100
AcDbCircle
 10
231.8974430757
 20
113.5829822962
 30
0.0
 40
7.645979352640568
100
AcDbArc
 50
242.4576367802
 51
297.5423632198
  0
LINE
  5
2DB
330
1F
100
AcDbEntity
  8
0
  6
Continuous
 62
     7
370
    15
100
AcDbLine
 10
217.9226089164
 20
112.8300077807
 30
0.0
 11
272.3698310678
 21
144.2617200858
 31
0.0
  0
LINE
  5
2DC
330
1F
100
AcDbEntity
  8
0
  6
Continuous
 62
     7
370
    15
100
AcDbLine
 10
282.8091313212
 20
138.2352403268
 30
0.0
 11
272.3698310678
 21
144.2617200858
 31
0.0
  0
LWPOLYLINE
  5
2DD
330
1F
100
AcDbEntity
  8
0
  6
Continuous
 62
     7
370
    15
100
AcDbPolyline
 90
       15
 70
   128
 43
0.0
 10
282.8091313212
 20
134.1531997677
 10
283.1827548276
 20
134.3945550411
 10
283.5072184114
 20
134.6585421462
 10
283.7784417548
 20
134.9418412919
 10
283.9930140668
 20
135.2408898271
 10
284.1482369762
 20
135.551927043
 10
284.2421584647
 20
135.871041466
 10
284.2735974152
 20
136.1942200472
 10
284.2421584647
 20
136.5173986285
 10
284.1482369762
 20
136.8365130515
 10
283.9930140668
 20
137.1475502674
 10
283.7784417548
 20
137.4465988026
 10
283.5072184114
 20
137.7298979483
 10
283.1827548276
 20
137.9938850534
 10
282.8091313212
 20
138.2352403268
  0
LINE
  5
2DE
330
1F
100
AcDbEntity
  8
0
  6
Continuous
 62
     7
370
    15
100
AcDbLine
 10
235.4329769817
 20
106.8035280216
 30
0.0
 11
282.8091313212
 21
134.1531997677
 31
0.0
  0
LINE
  5
2DF
330
1F
100
AcDbEntity
  8
0
  6
Continuous
 62
     7
370
    15
100
AcDbLine
 10
217.9226089164
 20
112.8300077807
 30
0.0
 11
228.3619091698
 21
106.8035280216
 31
0.0
  0
LWPOLYLINE
  5
2E0
330
1F
100
AcDbEntity
  8
0
  6
Continuous
 62
     7
370
    15
100
AcDbPolyline
 90
       34
 70
   128
 43
0.0
 10
258.6967900827
 20
128.0709593346
 10
258.8904580788
 20
128.206367182
 10
259.0362357185
 20
128.36048673
 10
259.1288542184
 20
128.5277476966
 10
259.1649661043
 20
128.7021048347
 10
259.1432661988
 20
128.877256423
 10
259.0645387928
 20
129.0468720268
 10
258.9316293
 20
129.2048212962
 10
258.7493414158
 20
129.3453955331
 10
258.5242634992
 20
129.4635140183
 10
258.2645304526
 20
129.554907642
 10
257.979529705
 20
129.6162732005
 10
257.6795619259
 20
129.6453927827
 10
257.3754687326
 20
129.641213931
 10
257.0782408452
 20
129.6038876799
 10
256.7986208541
 20
129.5347630974
 10
256.5467149542
 20
129.4363385261
 10
256.3316276812
 20
129.3121712863
 10
256.1611328495
 20
129.1667491058
 10
256.0413925865
 20
129.0053279208
 10
255.9767346173
 20
128.8337419138
 10
255.9694958494
 20
128.6581926499
 10
256.0199379108
 20
128.485024937
 10
256.1262376938
 20
128.3204975075
 10
256.2845532473
 20
128.1705568113
 10
256.4891626349
 20
128.0406220957
 10
256.7326707401
 20
127.9353895401
 10
257.0062765455
 20
127.8586625231
 10
257.3000912244
 20
127.8132141591
 10
257.6034955489
 20
127.8006870702
 10
257.9055236961
 20
127.8215340183
 10
258.1952595819
 20
127.8750015401
 10
258.4622313964
 20
127.9591571803
 10
258.6967900827
 20
128.0709593346
  0
LWPOLYLINE
  5
2E1
330
1F
100
AcDbEntity
  8
0
  6
Continuous
 62
     7
370
    15
100
AcDbPolyline
 90
       34
 70
   128
 43
0.0
 10
245.9688680214
 20
120.7232863282
 10
246.1625360174
 20
120.8586941756
 10
246.3083136572
 20
121.0128137236
 10
246.400932157
 20
121.1800746902
 10
246.437044043
 20
121.3544318283
 10
246.4153441374
 20
121.5295834166
 10
246.3366167315
 20
121.6991990204
 10
246.2037072387
 20
121.8571482898
 10
246.0214193545
 20
121.9977225267
 10
245.7963414379
 20
122.1158410119
 10
245.5366083912
 20
122.2072346356
 10
245.2516076436
 20
122.2686001941
 10
244.9516398646
 20
122.2977197763
 10
244.6475466712
 20
122.2935409246
 10
244.3503187838
 20
122.2562146735
 10
244.0706987927
 20
122.187090091
 10
243.8187928929
 20
122.0886655197
 10
243.6037056199
 20
121.9644982799
 10
243.4332107881
 20
121.8190760994
 10
243.3134705252
 20
121.6576549144
 10
243.248812556
 20
121.4860689074
 10
243.2415737881
 20
121.3105196435
 10
243.2920158494
 20
121.1373519306
 10
243.3983156324
 20
120.9728245011
 10
243.556631186
 20
120.8228838049
 10
243.7612405735
 20
120.6929490893
 10
244.0047486787
 20
120.5877165337
 10
244.2783544841
 20
120.5109895167
 10
244.5721691631
 20
120.4655411527
 10
244.8755734875
 20
120.4530140638
 10
245.1776016347
 20
120.4738610119
 10
245.4673375205
 20
120.5273285337
 10
245.734309335
 20
120.6114841739
 10
245.9688680214
 20
120.7232863282
  0
LWPOLYLINE
  5
2E2
330
1F
100
AcDbEntity
  8
0
  6
Continuous
 62
     7
370
    15
100
AcDbPolyline
 90
       67
 70
   128
 43
0.0
 10
239.5341963126
 20
112.1918215597
 10
239.9502804132
 20
112.4560507326
 10
240.3209725465
 20
112.7419159396
 10
240.642915667
 20
113.0468283412
 10
240.9131942081
 20
113.3680266033
 10
241.1293604854
 20
113.7026019049
 10
241.2894568637
 20
114.0475242802
 10
241.3920334852
 20
114.3996700587
 10
241.4361614004
 20
114.7558501537
 10
241.4214409798
 20
115.1128389431
 10
241.348005534
 20
115.4674034812
 10
241.2165201057
 20
115.8163327766
 10
241.0281754473
 20
116.1564668716
 10
240.7846772373
 20
116.4847254591
 10
240.488230633
 20
116.7981357786
 10
240.1415203009
 20
117.0938595376
 10
239.7476861033
 20
117.369218616
 10
239.3102946639
 20
117.6217193194
 10
238.8333070672
 20
117.8490749622
 10
238.3210429867
 20
118.0492265766
 10
237.7781415652
 20
118.2203615585
 10
237.2095194022
 20
118.3609300831
 10
236.620326028
 20
118.46965914
 10
236.015897269
 20
118.5455640621
 10
235.4017069256
 20
118.5879574426
 10
234.7833172008
 20
118.5964553605
 10
234.1663283276
 20
118.5709808573
 10
233.5563278528
 20
118.5117646342
 10
232.9588400351
 20
118.4193429623
 10
232.3792758168
 20
118.2945528266
 10
231.8228838212
 20
118.138524346
 10
231.2947028203
 20
117.9526705385
 10
230.7995161031
 20
117.738674525
 10
230.3418081571
 20
117.4984742865
 10
229.9257240565
 20
117.2342451136
 10
229.5550319232
 20
116.9483799066
 10
229.2330888027
 20
116.643467505
 10
228.9628102616
 20
116.3222692428
 10
228.7466439843
 20
115.9876939412
 10
228.586547606
 20
115.642771566
 10
228.4839709845
 20
115.2906257875
 10
228.4398430693
 20
114.9344456925
 10
228.4545634899
 20
114.577456903
 10
228.5279989357
 20
114.2228923649
 10
228.659484364
 20
113.8739630695
 10
228.8478290223
 20
113.5338289746
 10
229.0913272324
 20
113.205570387
 10
229.3877738367
 20
112.8921600676
 10
229.7344841688
 20
112.5964363086
 10
230.1283183664
 20
112.3210772301
 10
230.5657098058
 20
112.0685765268
 10
231.0426974025
 20
111.841220884
 10
231.554961483
 20
111.6410692696
 10
232.0978629044
 20
111.4699342876
 10
232.6664850675
 20
111.329365763
 10
233.2556784417
 20
111.2206367061
 10
233.8601072007
 20
111.144731784
 10
234.4742975441
 20
111.1023384036
 10
235.0926872689
 20
111.0938404857
 10
235.7096761421
 20
111.1193149888
 10
236.3196766169
 20
111.178531212
 10
236.9171644346
 20
111.2709528839
 10
237.4967286529
 20
111.3957430196
 10
238.0531206485
 20
111.5517715002
 10
238.5813016494
 20
111.7376253077
 10
239.0764883666
 20
111.9516213212
 10
239.5341963126
 20
112.1918215597
  0
LWPOLYLINE
  5
2E3
330
1F
100
AcDbEntity
  8
0
  6
Continuous
 62
     7
370
    15
100
AcDbPolyline
 90
       67
 70
   128
 43
0.0
 10
264.2829336541
 20
137.0922689702
 10
263.8668495535
 20
136.8280397973
 10
263.4961574202
 20
136.5421745903
 10
263.1742142996
 20
136.2372621887
 10
262.9039357585
 20
135.9160639266
 10
262.6877694812
 20
135.581488625
 10
262.527673103
 20
135.2365662497
 10
262.4250964814
 20
134.8844204712
 10
262.3809685663
 20
134.5282403762
 10
262.3956889868
 20
134.1712515868
 10
262.4691244326
 20
133.8166870487
 10
262.6006098609
 20
133.4677577533
 10
262.7889545193
 20
133.1276236583
 10
263.0324527294
 20
132.7993650708
 10
263.3288993337
 20
132.4859547513
 10
263.6756096658
 20
132.1902309923
 10
264.0694438633
 20
131.9148719139
 10
264.5068353027
 20
131.6623712105
 10
264.9838228995
 20
131.4350155677
 10
265.49608698
 20
131.2348639533
 10
266.0389884014
 20
131.0637289714
 10
266.6076105644
 20
130.9231604468
 10
267.1968039386
 20
130.8144313899
 10
267.8012326976
 20
130.7385264678
 10
268.415423041
 20
130.6961330873
 10
269.0338127658
 20
130.6876351694
 10
269.6508016391
 20
130.7131096726
 10
270.2608021139
 20
130.7723258957
 10
270.8582899316
 20
130.8647475676
 10
271.4378541499
 20
130.9895377033
 10
271.9942461455
 20
131.1455661839
 10
272.5224271464
 20
131.3314199914
 10
273.0176138636
 20
131.5454160049
 10
273.4753218095
 20
131.7856162434
 10
273.8914059101
 20
132.0498454163
 10
274.2620980434
 20
132.3357106233
 10
274.584041164
 20
132.6406230249
 10
274.8543197051
 20
132.9618212871
 10
275.0704859824
 20
133.2963965887
 10
275.2305823606
 20
133.6413189639
 10
275.3331589822
 20
133.9934647424
 10
275.3772868973
 20
134.3496448374
 10
275.3625664768
 20
134.7066336269
 10
275.289131031
 20
135.061198165
 10
275.1576456027
 20
135.4101274604
 10
274.9693009443
 20
135.7502615554
 10
274.7258027342
 20
136.0785201429
 10
274.4293561299
 20
136.3919304623
 10
274.0826457978
 20
136.6876542214
 10
273.6888116003
 20
136.9630132998
 10
273.2514201609
 20
137.2155140031
 10
272.7744325641
 20
137.4428696459
 10
272.2621684836
 20
137.6430212603
 10
271.7192670622
 20
137.8141562423
 10
271.1506448992
 20
137.9547247669
 10
270.561451525
 20
138.0634538238
 10
269.957022766
 20
138.1393587459
 10
269.3428324226
 20
138.1817521264
 10
268.7244426978
 20
138.1902500442
 10
268.1074538245
 20
138.1647755411
 10
267.4974533497
 20
138.1055593179
 10
266.899965532
 20
138.013137646
 10
266.3204013137
 20
137.8883475104
 10
265.7640093181
 20
137.7323190297
 10
265.2358283172
 20
137.5464652222
 10
264.7406416
 20
137.3324692087
 10
264.2829336541
 20
137.0922689702
  0
LWPOLYLINE
  5
2E4
330
1F
100
AcDbEntity
  8
0
  6
Continuous
 62
     7
370
    15
100
AcDbPolyline
 90
       34
 70
   128
 43
0.0
 10
262.2323239886
 20
126.0299390551
 10
262.4259919847
 20
126.1653469024
 10
262.5717696245
 20
126.3194664504
 10
262.6643881243
 20
126.486727417
 10
262.7005000103
 20
126.6610845551
 10
262.6788001047
 20
126.8362361434
 10
262.6000726987
 20
127.0058517472
 10
262.467163206
 20
127.1638010166
 10
262.2848753218
 20
127.3043752535
 10
262.0597974052
 20
127.4224937388
 10
261.8000643585
 20
127.5138873625
 10
261.5150636109
 20
127.575252921
 10
261.2150958319
 20
127.6043725032
 10
260.9110026385
 20
127.6001936514
 10
260.6137747511
 20
127.5628674003
 10
260.33415476
 20
127.4937428178
 10
260.0822488602
 20
127.3953182465
 10
259.8671615872
 20
127.2711510068
 10
259.6966667554
 20
127.1257288262
 10
259.5769264925
 20
126.9643076413
 10
259.5122685233
 20
126.7927216342
 10
259.5050297554
 20
126.6171723703
 10
259.5554718167
 20
126.4440046575
 10
259.6617715997
 20
126.2794772279
 10
259.8200871533
 20
126.1295365317
 10
260.0246965408
 20
125.9996018162
 10
260.268204646
 20
125.8943692606
 10
260.5418104514
 20
125.8176422436
 10
260.8356251303
 20
125.7721938795
 10
261.1390294548
 20
125.7596667907
 10
261.441057602
 20
125.7805137387
 10
261.7307934878
 20
125.8339812606
 10
261.9977653023
 20
125.9181369007
 10
262.2323239886
 20
126.0299390551
  0
LWPOLYLINE
  5
2E5
330
1F
100
AcDbEntity
  8
0
  6
Continuous
 62
     7
370
    15
100
AcDbPolyline
 90
       34
 70
   128
 43
0.0
 10
249.5044019273
 20
118.6822660486
 10
249.6980699233
 20
118.817673896
 10
249.8438475631
 20
118.971793444
 10
249.9364660629
 20
119.1390544106
 10
249.9725779489
 20
119.3134115487
 10
249.9508780433
 20
119.488563137
 10
249.8721506374
 20
119.6581787408
 10
249.7392411446
 20
119.8161280102
 10
249.5569532604
 20
119.9567022471
 10
249.3318753438
 20
120.0748207323
 10
249.0721422972
 20
120.1662143561
 10
248.7871415496
 20
120.2275799146
 10
248.4871737705
 20
120.2566994968
 10
248.1830805771
 20
120.252520645
 10
247.8858526898
 20
120.2151943939
 10
247.6062326986
 20
120.1460698114
 10
247.3543267988
 20
120.0476452401
 10
247.1392395258
 20
119.9234780004
 10
246.9687446941
 20
119.7780558198
 10
246.8490044311
 20
119.6166346349
 10
246.7843464619
 20
119.4450486278
 10
246.777107694
 20
119.2694993639
 10
246.8275497553
 20
119.0963316511
 10
246.9338495383
 20
118.9318042215
 10
247.0921650919
 20
118.7818635253
 10
247.2967744795
 20
118.6519288098
 10
247.5402825846
 20
118.5466962542
 10
247.81388839
 20
118.4699692372
 10
248.107703069
 20
118.4245208731
 10
248.4111073935
 20
118.4119937843
 10
248.7131355407
 20
118.4328407323
 10
249.0028714264
 20
118.4863082542
 10
249.269843241
 20
118.5704638943
 10
249.5044019273
 20
118.6822660486
  0
LINE
  5
2E6
330
1F
100
AcDbEntity
  8
0
  6
Continuous
 62
     7
370
    15
100
AcDbLine
 10
282.8091313212
 20
133.1733507934
 30
0.0
 11
282.8091313212
 21
134.1531997677
 31
0.0
  0
LINE
  5
2E7
330
1F
100
AcDbEntity
  8
0
  6
Continuous
 62
     7
370
    15
100
AcDbLine
 10
235.4329769817
 20
105.8236790474
 30
0.0
 11
282.8091313212
 21
133.1733507934
 31
0.0
  0
LINE
  5
2E8
330
1F
100
AcDbEntity
  8
0
  6
Continuous
 62
     7
370
    15
100
AcDbLine
 10
217.9226089164
 20
111.8501588064
 30
0.0
 11
217.9226089164
 21
112.8300077807
 31
0.0
  0
LINE
  5
2E9
330
1F
100
AcDbEntity
  8
0
  6
Continuous
 62
     7
370
    15
100
AcDbLine
 10
217.9226089164
 20
111.8501588064
 30
0.0
 11
228.3619091698
 21
105.8236790474
 31
0.0
  0
LWPOLYLINE
  5
2EA
330
1F
100
AcDbEntity
  8
0
  6
Continuous
 62
     7
370
    15
100
AcDbPolyline
 90
       25
 70
   128
 43
0.0
 10
230.3418081571
 20
116.5186253122
 10
230.7995161031
 20
116.7588255507
 10
231.2947028203
 20
116.9728215642
 10
231.8228838212
 20
117.1586753717
 10
232.3792758168
 20
117.3147038523
 10
232.9588400351
 20
117.439493988
 10
233.5563278528
 20
117.5319156599
 10
234.1663283276
 20
117.5911318831
 10
234.7833172008
 20
117.6166063862
 10
235.4017069256
 20
117.6081084683
 10
236.015897269
 20
117.5657150879
 10
236.620326028
 20
117.4898101658
 10
237.2095194022
 20
117.3810811089
 10
237.7781415652
 20
117.2405125843
 10
238.3210429867
 20
117.0693776023
 10
238.8333070672
 20
116.8692259879
 10
239.3102946639
 20
116.6418703451
 10
239.7476861033
 20
116.3893696418
 10
240.1415203009
 20
116.1140105633
 10
240.488230633
 20
115.8182868043
 10
240.7846772373
 20
115.5048764849
 10
241.0281754473
 20
115.1766178973
 10
241.2165201057
 20
114.8364838024
 10
241.348005534
 20
114.487554507
 10
241.3823614677
 20
114.3552234359
  0
ARC
  5
2EB
330
1F
100
AcDbEntity
  8
0
  6
Continuous
 62
     7
370
    15
100
AcDbCircle
 10
231.9933548739
 20
113.2365988745
 30
0.0
 40
3.674139912378462
100
AcDbArc
 50
116.7119725662
 51
162.2743875638
  0
ARC
  5
2EC
330
1F
100
AcDbEntity
  8
0
  6
Continuous
 62
     7
370
    15
100
AcDbCircle
 10
271.8027006551
 20
143.4712798142
 30
0.0
 40
0.9728477414953952
100
AcDbArc
 50
54.3410619984
 51
114.3484795725
  0
ARC
  5
2ED
330
1F
100
AcDbEntity
  8
0
  6
Continuous
 62
     7
370
    15
100
AcDbCircle
 10
217.3922369794
 20
112.1673838906
 30
0.0
 40
0.8487430773457151
100
AcDbArc
 50
51.325810101
 51
188.6849416537
  0
LINE
  5
2EE
330
1F
100
AcDbEntity
  8
0
  6
Continuous
 62
     7
370
    15
100
AcDbLine
 10
217.4017540614
 20
111.549377952
 30
0.0
 11
216.553225924
 21
112.039222819
 31
0.0
  0
ARC
  5
2EF
330
1F
100
AcDbEntity
  8
0
  6
Continuous
 62
     7
370
    15
100
AcDbCircle
 10
217.7192834405
 20
111.6008863252
 30
0.0
 40
0.3216799948258183
100
AcDbArc
 50
50.7967147643
 51
189.2140369905
  0
LINE
  5
2F0
330
1F
100
AcDbEntity
  8
0
  6
Continuous
 62
     7
370
    15
100
AcDbLine
 10
217.4017540614
 20
111.549377952
 30
0.0
 11
217.9226935769
 21
111.850109933
 31
0.0
  0
LINE
  5
2F1
330
1F
100
AcDbEntity
  8
0
  6
Continuous
 62
     7
370
    15
100
AcDbLine
 10
217.4017540614
 20
111.549377952
 30
0.0
 11
217.4017540614
 21
111.5274946582
 31
0.0
  0
LINE
  5
2F2
330
1F
100
AcDbEntity
  8
0
  6
Continuous
 62
     7
370
    15
100
AcDbLine
 10
216.553225924
 20
112.0173395253
 30
0.0
 11
217.4017540614
 21
111.5274946582
 31
0.0
  0
LINE
  5
2F3
330
1F
100
AcDbEntity
  8
0
  6
Continuous
 62
     7
370
    15
100
AcDbLine
 10
216.553225924
 20
112.039222819
 30
0.0
 11
216.553225924
 21
112.0173395253
 31
0.0
  0
LINE
  5
2F4
330
1F
100
AcDbEntity
  8
0
  6
Continuous
 62
     7
370
    15
100
AcDbLine
 10
217.9416471189
 20
111.8391682861
 30
0.0
 11
217.4017540614
 21
111.5274946582
 31
0.0
  0
ARC
  5
2F5
330
1F
100
AcDbEntity
  8
0
  6
Continuous
 62
     7
370
    15
100
AcDbCircle
 10
216.562743006
 20
111.3993335867
 30
0.0
 40
0.8487430773457288
100
AcDbArc
 50
231.325810101
 51
8.6849416537
  0
LINE
  5
2F6
330
1F
100
AcDbEntity
  8
0
  6
Continuous
 62
     7
370
    15
100
AcDbLine
 10
216.032371069
 20
111.7165586708
 30
0.0
 11
216.032371069
 21
110.7367096966
 31
0.0
  0
ARC
  5
2F7
330
1F
100
AcDbEntity
  8
0
  6
Continuous
 62
     7
370
    15
100
AcDbCircle
 10
216.2356965449
 20
111.9658311521
 30
0.0
 40
0.3216799948258326
100
AcDbArc
 50
230.7967147643
 51
9.2140369905
  0
LINE
  5
2F8
330
1F
100
AcDbEntity
  8
0
  6
Continuous
 62
     7
370
    15
100
AcDbLine
 10
216.5532259171
 20
112.0172417745
 30
0.0
 11
216.032371069
 21
111.7165586708
 31
0.0
  0
ARC
  5
2F9
330
1F
100
AcDbEntity
  8
0
  6
Continuous
 62
     7
370
    15
100
AcDbCircle
 10
261.8080599199
 20
139.3337660411
 30
0.0
 40
7.645979352640567
100
AcDbArc
 50
62.4576367802
 51
117.5423632198
  0
LINE
  5
2FA
330
1F
100
AcDbEntity
  8
0
  6
Continuous
 62
     7
370
    15
100
AcDbLine
 10
269.8931806152
 20
143.4867997672
 30
0.0
 11
265.3435938259
 21
146.1132203157
 31
0.0
  0
LINE
  5
2FB
330
1F
100
AcDbEntity
  8
0
  6
Continuous
 62
     7
370
    15
100
AcDbLine
 10
210.8963716745
 20
114.6815080105
 30
0.0
 11
216.032371069
 21
111.7165586708
 31
0.0
  0
LWPOLYLINE
  5
2FC
330
1F
100
AcDbEntity
  8
0
  6
Continuous
 62
     7
370
    15
100
AcDbPolyline
 90
       15
 70
   128
 43
0.0
 10
210.8963716745
 20
118.7635485697
 10
210.5227481681
 20
118.5221932962
 10
210.1982845843
 20
118.2582061911
 10
209.9270612409
 20
117.9749070454
 10
209.7124889289
 20
117.6758585102
 10
209.5572660195
 20
117.3648212944
 10
209.463344531
 20
117.0457068713
 10
209.4319055804
 20
116.7225282901
 10
209.463344531
 20
116.3993497089
 10
209.5572660195
 20
116.0802352858
 10
209.7124889289
 20
115.76919807
 10
209.9270612409
 20
115.4701495348
 10
210.1982845843
 20
115.1868503891
 10
210.5227481681
 20
114.922863284
 10
210.8963716745
 20
114.6815080105
  0
LINE
  5
2FD
330
1F
100
AcDbEntity
  8
0
  6
Continuous
 62
     7
370
    15
100
AcDbLine
 10
214.149062868
 20
120.6412872269
 30
0.0
 11
210.8963716745
 21
118.7635485697
 31
0.0
  0
ARC
  5
2FE
330
1F
100
AcDbEntity
  8
0
  6
Continuous
 62
     7
370
    15
100
AcDbCircle
 10
215.5632764303
 20
117.9268597033
 30
0.0
 40
3.060737947099114
100
AcDbArc
 50
62.4805390039
 51
117.5194609961
  0
LINE
  5
2FF
330
1F
100
AcDbEntity
  8
0
  6
Continuous
 62
     7
370
    15
100
AcDbLine
 10
219.4523637269
 20
119.2125730312
 30
0.0
 11
216.9774899927
 21
120.6412872269
 31
0.0
  0
LWPOLYLINE
  5
300
330
1F
100
AcDbEntity
  8
0
  6
Continuous
 62
     7
370
    15
100
AcDbPolyline
 90
       19
 70
   128
 43
0.0
 10
222.1393694954
 20
120.7637484436
 10
222.3522554953
 20
120.6172861318
 10
222.5178514065
 20
120.4517081633
 10
222.6311256811
 20
120.2720455407
 10
222.6886365375
 20
120.0837572221
 10
222.6886365375
 20
119.8925642527
 10
222.6311256811
 20
119.704275934
 10
222.5178514065
 20
119.5246133115
 10
222.3522554953
 20
119.359035343
 10
222.1393694954
 20
119.2125730312
 10
221.8856618402
 20
119.0896765593
 10
221.5988413084
 20
118.9940800746
 10
221.2876227968
 20
118.9286882278
 10
220.9614625223
 20
118.8954879171
 10
220.6302706999
 20
118.8954879171
 10
220.3041104254
 20
118.9286882278
 10
219.9928919138
 20
118.9940800746
 10
219.706071382
 20
119.0896765593
 10
219.4523637269
 20
119.2125730312
  0
LINE
  5
301
330
1F
100
AcDbEntity
  8
0
  6
Continuous
 62
     7
370
    15
100
AcDbLine
 10
219.6644957612
 20
122.1924626393
 30
0.0
 11
222.1393694954
 21
120.7637484436
 31
0.0
  0
ARC
  5
302
330
1F
100
AcDbEntity
  8
0
  6
Continuous
 62
     7
370
    15
100
AcDbCircle
 10
219.9830060399
 20
123.0088707511
 30
0.0
 40
0.8763395475856399
100
AcDbArc
 50
111.3125518932
 51
248.6874481068
  0
LINE
  5
303
330
1F
100
AcDbEntity
  8
0
  6
Continuous
 62
     7
370
    15
100
AcDbLine
 10
249.5044019273
 20
141.0514900224
 30
0.0
 11
219.6644957612
 21
123.825278863
 31
0.0
  0
ARC
  5
304
330
1F
100
AcDbEntity
  8
0
  6
Continuous
 62
     7
370
    15
100
AcDbCircle
 10
250.9186154897
 20
138.3370624988
 30
0.0
 40
3.060737947099455
100
AcDbArc
 50
62.4805390039
 51
117.5194609961
  0
LINE
  5
305
330
1F
100
AcDbEntity
  8
0
  6
Continuous
 62
     7
370
    15
100
AcDbLine
 10
254.8077027862
 20
139.6227758267
 30
0.0
 11
252.332829052
 21
141.0514900224
 31
0.0
  0
LWPOLYLINE
  5
306
330
1F
100
AcDbEntity
  8
0
  6
Continuous
 62
     7
370
    15
100
AcDbPolyline
 90
       19
 70
   128
 43
0.0
 10
257.4947085547
 20
141.1739512392
 10
257.7075945546
 20
141.0274889274
 10
257.8731904658
 20
140.8619109588
 10
257.9864647404
 20
140.6822483363
 10
258.0439755968
 20
140.4939600177
 10
258.0439755968
 20
140.3027670482
 10
257.9864647404
 20
140.1144787296
 10
257.8731904658
 20
139.9348161071
 10
257.7075945546
 20
139.7692381385
 10
257.4947085547
 20
139.6227758267
 10
257.2410008995
 20
139.4998793549
 10
256.9541803677
 20
139.4042828702
 10
256.6429618561
 20
139.3388910234
 10
256.3168015817
 20
139.3056907127
 10
255.9856097592
 20
139.3056907127
 10
255.6594494847
 20
139.3388910234
 10
255.3482309731
 20
139.4042828702
 10
255.0614104414
 20
139.4998793549
 10
254.8077027862
 20
139.6227758267
  0
LINE
  5
307
330
1F
100
AcDbEntity
  8
0
  6
Continuous
 62
     7
370
    15
100
AcDbLine
 10
255.0198348205
 20
142.6026654349
 30
0.0
 11
257.4947085547
 21
141.1739512392
 31
0.0
  0
ARC
  5
308
330
1F
100
AcDbEntity
  8
0
  6
Continuous
 62
     7
370
    15
100
AcDbCircle
 10
255.3383450992
 20
143.4190735467
 30
0.0
 40
0.8763395475856738
100
AcDbArc
 50
111.3125518932
 51
248.6874481068
  0
LINE
  5
309
330
1F
100
AcDbEntity
  8
0
  6
Continuous
 62
     7
370
    15
100
AcDbLine
 10
258.272526014
 20
146.1132203157
 30
0.0
 11
255.0198348205
 21
144.2354816585
 31
0.0
  0
LINE
  5
30A
330
1F
100
AcDbEntity
  8
0
  6
Continuous
 62
     7
370
    15
100
AcDbLine
 10
210.8963716745
 20
113.7016590363
 30
0.0
 11
216.032371069
 21
110.7367096966
 31
0.0
  0
LINE
  5
30B
330
1F
100
AcDbEntity
  8
0
  6
Continuous
 62
     7
370
    15
100
AcDbLine
 10
210.8963716745
 20
114.6815080105
 30
0.0
 11
210.8963716745
 21
113.7016590363
 31
0.0
  0
ARC
  5
30C
330
1F
100
AcDbEntity
  8
0
  6
Continuous
 62
     7
370
    15
100
AcDbCircle
 10
211.8800917538
 20
115.9533941657
 30
0.0
 40
2.457237531766872
100
AcDbArc
 50
184.9193117152
 51
246.4008292424
  0
ARC
  5
30D
330
1F
100
AcDbEntity
  8
0
  6
Continuous
 62
     7
370
    15
100
AcDbCircle
 10
248.3587777478
 20
116.9948520149
 30
0.0
 40
2.302914380908951
100
AcDbArc
 50
53.4750161796
 51
119.0182776115
  0
LWPOLYLINE
  5
30E
330
1F
100
AcDbEntity
  8
0
  6
Continuous
 62
     7
370
    15
100
AcDbPolyline
 90
        3
 70
   128
 43
0.0
 10
247.016651366
 20
118.845468051
 10
247.0479922315
 20
118.8732622059
 10
247.2416602275
 20
119.0086700533
  0
ARC
  5
30F
330
1F
100
AcDbEntity
  8
0
  6
Continuous
 62
     7
370
    15
100
AcDbCircle
 10
244.8232438419
 20
119.0358722945
 30
0.0
 40
2.302914380908872
100
AcDbArc
 50
53.4750161796
 51
119.0182776115
  0
LWPOLYLINE
  5
310
330
1F
100
AcDbEntity
  8
0
  6
Continuous
 62
     7
370
    15
100
AcDbPolyline
 90
        3
 70
   128
 43
0.0
 10
243.4811174601
 20
120.8864883305
 10
243.5124583255
 20
120.9142824855
 10
243.7061263216
 20
121.0496903329
  0
LINE
  5
311
330
1F
100
AcDbEntity
  8
0
  6
Continuous
 62
     7
370
    15
100
AcDbLine
 10
222.1393694954
 20
120.7637484436
 30
0.0
 11
222.1393694954
 21
119.7838994694
 31
0.0
  0
LWPOLYLINE
  5
312
330
1F
100
AcDbEntity
  8
0
  6
Continuous
 62
     7
370
    15
100
AcDbPolyline
 90
        3
 70
   128
 43
0.0
 10
222.1393694954
 20
119.7838994694
 10
222.3522554953
 20
119.6374371576
 10
222.4957977631
 20
119.4982362503
  0
LINE
  5
313
330
1F
100
AcDbEntity
  8
0
  6
Continuous
 62
     7
370
    15
100
AcDbLine
 10
219.6644957612
 20
122.1924626393
 30
0.0
 11
219.6644957612
 21
121.2126136651
 31
0.0
  0
LINE
  5
314
330
1F
100
AcDbEntity
  8
0
  6
Continuous
 62
     7
370
    15
100
AcDbLine
 10
219.6644957612
 20
121.2126136651
 30
0.0
 11
222.1393694954
 21
119.7838994694
 31
0.0
  0
ARC
  5
315
330
1F
100
AcDbEntity
  8
0
  6
Continuous
 62
     7
370
    15
100
AcDbCircle
 10
261.0866998092
 20
124.3425250213
 30
0.0
 40
2.302914380908982
100
AcDbArc
 50
53.4750161796
 51
119.0182776115
  0
LWPOLYLINE
  5
316
330
1F
100
AcDbEntity
  8
0
  6
Continuous
 62
     7
370
    15
100
AcDbPolyline
 90
        3
 70
   128
 43
0.0
 10
259.7445734274
 20
126.1931410574
 10
259.7759142928
 20
126.2209352123
 10
259.9695822888
 20
126.3563430597
  0
ARC
  5
317
330
1F
100
AcDbEntity
  8
0
  6
Continuous
 62
     7
370
    15
100
AcDbCircle
 10
220.0542618184
 20
122.110637138
 30
0.0
 40
0.9789605392289752
100
AcDbArc
 50
184.7822660226
 51
246.537874935
  0
ARC
  5
318
330
1F
100
AcDbEntity
  8
0
  6
Continuous
 62
     7
370
    15
100
AcDbCircle
 10
257.5511659032
 20
126.3835453009
 30
0.0
 40
2.30291438090902
100
AcDbArc
 50
53.4750161796
 51
119.0182776115
  0
LWPOLYLINE
  5
319
330
1F
100
AcDbEntity
  8
0
  6
Continuous
 62
     7
370
    15
100
AcDbPolyline
 90
        3
 70
   128
 43
0.0
 10
256.2090395214
 20
128.2341613369
 10
256.2403803869
 20
128.2619554919
 10
256.4340483829
 20
128.3973633393
  0
LWPOLYLINE
  5
31A
330
1F
100
AcDbEntity
  8
0
  6
Continuous
 62
     7
370
    15
100
AcDbPolyline
 90
       25
 70
   128
 43
0.0
 10
264.2829336541
 20
136.112419996
 10
264.7406416
 20
136.3526202345
 10
265.2358283172
 20
136.566616248
 10
265.7640093181
 20
136.7524700555
 10
266.3204013137
 20
136.9084985361
 10
266.899965532
 20
137.0332886717
 10
267.4974533497
 20
137.1257103436
 10
268.1074538245
 20
137.1849265668
 10
268.7244426978
 20
137.21040107
 10
269.3428324226
 20
137.2019031521
 10
269.957022766
 20
137.1595097716
 10
270.561451525
 20
137.0836048495
 10
271.1506448992
 20
136.9748757926
 10
271.7192670622
 20
136.834307268
 10
272.2621684836
 20
136.6631722861
 10
272.7744325641
 20
136.4630206717
 10
273.2514201609
 20
136.2356650289
 10
273.6888116003
 20
135.9831643255
 10
274.0826457978
 20
135.7078052471
 10
274.4293561299
 20
135.4120814881
 10
274.7258027342
 20
135.0986711686
 10
274.9693009443
 20
134.7704125811
 10
275.1576456027
 20
134.4302784861
 10
275.289131031
 20
134.0813491907
 10
275.3234869646
 20
133.9490181197
  0
ARC
  5
31B
330
1F
100
AcDbEntity
  8
0
  6
Continuous
 62
     7
370
    15
100
AcDbCircle
 10
265.9344803709
 20
132.8303935583
 30
0.0
 40
3.67413991237862
100
AcDbArc
 50
116.7119725662
 51
162.2743875638
  0
ARC
  5
31C
330
1F
100
AcDbEntity
  8
0
  6
Continuous
 62
     7
370
    15
100
AcDbCircle
 10
281.705339807
 20
135.5112391801
 30
0.0
 40
2.585358353400464
100
AcDbArc
 50
295.2734871585
 51
353.4063718839
  0
LINE
  5
31D
330
1F
100
AcDbEntity
  8
0
  6
Continuous
 62
     7
370
    15
100
AcDbLine
 10
257.4947085547
 20
141.1739512392
 30
0.0
 11
257.4947085547
 21
140.1941022649
 31
0.0
  0
LWPOLYLINE
  5
31E
330
1F
100
AcDbEntity
  8
0
  6
Continuous
 62
     7
370
    15
100
AcDbPolyline
 90
        3
 70
   128
 43
0.0
 10
257.4947085547
 20
140.1941022649
 10
257.7075945546
 20
140.0476399531
 10
257.8511368224
 20
139.9084390458
  0
LINE
  5
31F
330
1F
100
AcDbEntity
  8
0
  6
Continuous
 62
     7
370
    15
100
AcDbLine
 10
255.0198348205
 20
142.6026654349
 30
0.0
 11
255.0198348205
 21
141.6228164606
 31
0.0
  0
LINE
  5
320
330
1F
100
AcDbEntity
  8
0
  6
Continuous
 62
     7
370
    15
100
AcDbLine
 10
255.0198348205
 20
141.6228164606
 30
0.0
 11
257.4947085547
 21
140.1941022649
 31
0.0
  0
ARC
  5
321
330
1F
100
AcDbEntity
  8
0
  6
Continuous
 62
     7
370
    15
100
AcDbCircle
 10
255.4096008778
 20
142.5208399336
 30
0.0
 40
0.9789605392290944
100
AcDbArc
 50
184.7822660226
 51
246.537874935
  0
ENDSEC
  0
SECTION
  2
OBJECTS
  0
DICTIONARY
  5
C
330
0
100
AcDbDictionary
281
     1
  3
ACAD_GROUP
350
D
  3
ACAD_LAYOUT
350
1A
  3
ACAD_MLINESTYLE
350
17
  3
ACAD_PLOTSETTINGS
350
19
  3
ACAD_PLOTSTYLENAME
350
E
  3
ACAD_SCALELIST
350
47
  0
DICTIONARY
  5
D
102
{ACAD_REACTORS
330
C
102
}
330
C
100
AcDbDictionary
281
     1
  0
DICTIONARY
  5
1A
102
{ACAD_REACTORS
330
C
102
}
330
C
100
AcDbDictionary
281
     1
  3
Layout1
350
1E
  3
Layout2
350
26
  3
Model
350
22
  0
DICTIONARY
  5
17
102
{ACAD_REACTORS
330
C
102
}
330
C
100
AcDbDictionary
281
     1
  3
Standard
350
18
  0
DICTIONARY
  5
19
102
{ACAD_REACTORS
330
C
102
}
330
C
100
AcDbDictionary
281
     1
  0
ACDBDICTIONARYWDFLT
  5
E
102
{ACAD_REACTORS
330
C
102
}
330
C
100
AcDbDictionary
281
     1
  3
Normal
350
F
100
AcDbDictionaryWithDefault
340
F
  0
DICTIONARY
  5
47
102
{ACAD_REACTORS
330
C
102
}
330
C
100
AcDbDictionary
281
     1
  3
A0
350
48
  3
A1
350
49
  3
A2
350
4A
  3
A3
350
4B
  3
A4
350
4C
  3
A5
350
4D
  3
A6
350
4E
  3
A7
350
4F
  3
A8
350
50
  3
A9
350
51
  3
B0
350
52
  3
B1
350
53
  3
B2
350
54
  3
B3
350
55
  3
B4
350
56
  3
B5
350
57
  3
B6
350
58
  3
B7
350
59
  3
B8
350
5A
  3
B9
350
5B
  3
C0
350
5C
  3
C1
350
5D
  3
C2
350
5E
  3
C3
350
5F
  3
C4
350
60
  3
C5
350
61
  3
C6
350
62
  3
C7
350
63
  3
C8
350
64
  3
C9
350
65
  3
D0
350
66
  3
D1
350
67
  3
D2
350
68
  0
LAYOUT
  5
1E
102
{ACAD_REACTORS
330
1A
102
}
330
1A
100
AcDbPlotSettings
  1

  2
none_device
  4

  6

 40
0.0
 41
0.0
 42
0.0
 43
0.0
 44
0.0
 45
0.0
 46
0.0
 47
0.0
 48
0.0
 49
0.0
140
0.0
141
0.0
142
1.0
143
1.0
 70
   688
 72
     1
 73
     0
 74
     5
  7

 75
    16
147
1.0
148
0.0
149
0.0
100
AcDbLayout
  1
Layout1
 70
     1
 71
     1
 10
0.0
 20
0.0
 11
420.0
 21
297.0
 12
0.0
 22
0.0
 32
0.0
 14
1.0000000000E+20
 24
1.0000000000E+20
 34
1.0000000000E+20
 15
-1.0000000000E+20
 25
-1.0000000000E+20
 35
-1.0000000000E+20
146
0.0
 13
0.0
 23
0.0
 33
0.0
 16
1.0
 26
0.0
 36
0.0
 17
0.0
 27
1.0
 37
0.0
 76
     0
330
1B
  0
LAYOUT
  5
26
102
{ACAD_REACTORS
330
1A
102
}
330
1A
100
AcDbPlotSettings
  1

  2
none_device
  4

  6

 40
0.0
 41
0.0
 42
0.0
 43
0.0
 44
0.0
 45
0.0
 46
0.0
 47
0.0
 48
0.0
 49
0.0
140
0.0
141
0.0
142
1.0
143
1.0
 70
   688
 72
     1
 73
     0
 74
     5
  7

 75
    16
147
1.0
148
0.0
149
0.0
100
AcDbLayout
  1
Layout2
 70
     1
 71
     2
 10
0.0
 20
0.0
 11
0.0
 21
0.0
 12
0.0
 22
0.0
 32
0.0
 14
0.0
 24
0.0
 34
0.0
 15
0.0
 25
0.0
 35
0.0
146
0.0
 13
0.0
 23
0.0
 33
0.0
 16
1.0
 26
0.0
 36
0.0
 17
0.0
 27
1.0
 37
0.0
 76
     0
330
23
  0
LAYOUT
  5
22
102
{ACAD_REACTORS
330
1A
102
}
330
1A
100
AcDbPlotSettings
  1

  2
none_device
  4
Letter_(8.50_x_11.00_Inches)
  6

 40
6.35
 41
6.35
 42
6.35000508
 43
6.35000508
 44
215.9
 45
279.4
 46
0.0
 47
0.0
 48
0.0
 49
0.0
140
0.0
141
0.0
142
1.0
143
1.0
 70
  1712
 72
     1
 73
     0
 74
     0
  7

 75
     0
147
1.0
148
0.0
149
0.0
100
AcDbLayout
  1
Model
 70
     1
 71
     0
 10
0.0
 20
0.0
 11
297.0
 21
210.0
 12
0.0
 22
0.0
 32
0.0
 14
0.0
 24
0.0
 34
0.0
 15
297.0
 25
210.0
 35
0.0
146
0.0
 13
0.0
 23
0.0
 33
0.0
 16
1.0
 26
0.0
 36
0.0
 17
0.0
 27
1.0
 37
0.0
 76
     0
330
1F
331
29
  0
MLINESTYLE
  5
18
102
{ACAD_REACTORS
330
17
102
}
330
17
100
AcDbMlineStyle
  2
Standard
 70
     0
  3

 62
   256
 51
90.0
 52
90.0
 71
     2
 49
0.5
 62
   256
  6
BYLAYER
 49
-0.5
 62
   256
  6
BYLAYER
  0
ACDBPLACEHOLDER
  5
F
102
{ACAD_REACTORS
330
E
102
}
330
E
  0
SCALE
  5
48
102
{ACAD_REACTORS
330
47
102
}
330
47
100
AcDbScale
 70
     0
300
1:1
140
1.0
141
1.0
290
     1
  0
SCALE
  5
49
102
{ACAD_REACTORS
330
47
102
}
330
47
100
AcDbScale
 70
     0
300
1:2
140
1.0
141
2.0
290
     0
  0
SCALE
  5
4A
102
{ACAD_REACTORS
330
47
102
}
330
47
100
AcDbScale
 70
     0
300
1:4
140
1.0
141
4.0
290
     0
  0
SCALE
  5
4B
102
{ACAD_REACTORS
330
47
102
}
330
47
100
AcDbScale
 70
     0
300
1:5
140
1.0
141
5.0
290
     0
  0
SCALE
  5
4C
102
{ACAD_REACTORS
330
47
102
}
330
47
100
AcDbScale
 70
     0
300
1:8
140
1.0
141
8.0
290
     0
  0
SCALE
  5
4D
102
{ACAD_REACTORS
330
47
102
}
330
47
100
AcDbScale
 70
     0
300
1:10
140
1.0
141
10.0
290
     0
  0
SCALE
  5
4E
102
{ACAD_REACTORS
330
47
102
}
330
47
100
AcDbScale
 70
     0
300
1:16
140
1.0
141
16.0
290
     0
  0
SCALE
  5
4F
102
{ACAD_REACTORS
330
47
102
}
330
47
100
AcDbScale
 70
     0
300
1:20
140
1.0
141
20.0
290
     0
  0
SCALE
  5
50
102
{ACAD_REACTORS
330
47
102
}
330
47
100
AcDbScale
 70
     0
300
1:30
140
1.0
141
30.0
290
     0
  0
SCALE
  5
51
102
{ACAD_REACTORS
330
47
102
}
330
47
100
AcDbScale
 70
     0
300
1:40
140
1.0
141
40.0
290
     0
  0
SCALE
  5
52
102
{ACAD_REACTORS
330
47
102
}
330
47
100
AcDbScale
 70
     0
300
1:50
140
1.0
141
50.0
290
     0
  0
SCALE
  5
53
102
{ACAD_REACTORS
330
47
102
}
330
47
100
AcDbScale
 70
     0
300
1:100
140
1.0
141
100.0
290
     0
  0
SCALE
  5
54
102
{ACAD_REACTORS
330
47
102
}
330
47
100
AcDbScale
 70
     0
300
2:1
140
2.0
141
1.0
290
     0
  0
SCALE
  5
55
102
{ACAD_REACTORS
330
47
102
}
330
47
100
AcDbScale
 70
     0
300
4:1
140
4.0
141
1.0
290
     0
  0
SCALE
  5
56
102
{ACAD_REACTORS
330
47
102
}
330
47
100
AcDbScale
 70
     0
300
8:1
140
8.0
141
1.0
290
     0
  0
SCALE
  5
57
102
{ACAD_REACTORS
330
47
102
}
330
47
100
AcDbScale
 70
     0
300
10:1
140
10.0
141
1.0
290
     0
  0
SCALE
  5
58
102
{ACAD_REACTORS
330
47
102
}
330
47
100
AcDbScale
 70
     0
300
100:1
140
100.0
141
1.0
290
     0
  0
SCALE
  5
59
102
{ACAD_REACTORS
330
47
102
}
330
47
100
AcDbScale
 70
     0
300
1/128" = 1'-0"
140
0.0078125
141
12.0
290
     0
  0
SCALE
  5
5A
102
{ACAD_REACTORS
330
47
102
}
330
47
100
AcDbScale
 70
     0
300
1/64" = 1'-0"
140
0.015625
141
12.0
290
     0
  0
SCALE
  5
5B
102
{ACAD_REACTORS
330
47
102
}
330
47
100
AcDbScale
 70
     0
300
1/32" = 1'-0"
140
0.03125
141
12.0
290
     0
  0
SCALE
  5
5C
102
{ACAD_REACTORS
330
47
102
}
330
47
100
AcDbScale
 70
     0
300
1/16" = 1'-0"
140
0.0625
141
12.0
290
     0
  0
SCALE
  5
5D
102
{ACAD_REACTORS
330
47
102
}
330
47
100
AcDbScale
 70
     0
300
3/32" = 1'-0"
140
0.09375
141
12.0
290
     0
  0
SCALE
  5
5E
102
{ACAD_REACTORS
330
47
102
}
330
47
100
AcDbScale
 70
     0
300
1/8" = 1'-0"
140
0.125
141
12.0
290
     0
  0
SCALE
  5
5F
102
{ACAD_REACTORS
330
47
102
}
330
47
100
AcDbScale
 70
     0
300
3/16" = 1'-0"
140
0.1875
141
12.0
290
     0
  0
SCALE
  5
60
102
{ACAD_REACTORS
330
47
102
}
330
47
100
AcDbScale
 70
     0
300
1/4" = 1'-0"
140
0.25
141
12.0
290
     0
  0
SCALE
  5
61
102
{ACAD_REACTORS
330
47
102
}
330
47
100
AcDbScale
 70
     0
300
3/8" = 1'-0"
140
0.375
141
12.0
290
     0
  0
SCALE
  5
62
102
{ACAD_REACTORS
330
47
102
}
330
47
100
AcDbScale
 70
     0
300
1/2" = 1'-0"
140
0.5
141
12.0
290
     0
  0
SCALE
  5
63
102
{ACAD_REACTORS
330
47
102
}
330
47
100
AcDbScale
 70
     0
300
3/4" = 1'-0"
140
0.75
141
12.0
290
     0
  0
SCALE
  5
64
102
{ACAD_REACTORS
330
47
102
}
330
47
100
AcDbScale
 70
     0
300
1" = 1'-0"
140
1.0
141
12.0
290
     0
  0
SCALE
  5
65
102
{ACAD_REACTORS
330
47
102
}
330
47
100
AcDbScale
 70
     0
300
1-1/2" = 1'-0"
140
1.5
141
12.0
290
     0
  0
SCALE
  5
66
102
{ACAD_REACTORS
330
47
102
}
330
47
100
AcDbScale
 70
     0
300
3" = 1'-0"
140
3.0
141
12.0
290
     0
  0
SCALE
  5
67
102
{ACAD_REACTORS
330
47
102
}
330
47
100
AcDbScale
 70
     0
300
6" = 1'-0"
140
6.0
141
12.0
290
     0
  0
SCALE
  5
68
102
{ACAD_REACTORS
330
47
102
}
330
47
100
AcDbScale
 70
     0
300
1'-0" = 1'-0"
140
12.0
141
12.0
290
     0
  0
ENDSEC
  0
EOF
