  0
SECTION
  2
HEADER
  9
$ACADVER
  1
AC1015
  9
$ACADMAINTVER
 70
     6
  9
$DWGCODEPAGE
  3
DOS932
  9
$INSBASE
 10
0.0
 20
0.0
 30
0.0
  9
$EXTMIN
 10
0.0
 20
0.0
 30
0.0
  9
$EXTMAX
 10
297.0
 20
210.0
 30
0.0
  9
$LIMMIN
 10
0.0
 20
0.0
  9
$LIMMAX
 10
297.0
 20
210.0
  9
$ORTHOMODE
 70
     0
  9
$REGENMODE
 70
     1
  9
$FILLMODE
 70
     1
  9
$QTEXTMODE
 70
     0
  9
$MIRRTEXT
 70
     1
  9
$LTSCALE
 40
1.0
  9
$ATTMODE
 70
     1
  9
$TEXTSIZE
 40
3.5
  9
$TRACEWID
 40
1.0
  9
$TEXTSTYLE
  7
Standard
  9
$CLAYER
  8
0
  9
$CELTYPE
  6
ByLayer
  9
$CECOLOR
 62
   256
  9
$CELTSCALE
 40
1.0
  9
$DISPSILH
 70
     0
  9
$DIMSCALE
 40
1.0
  9
$DIMASZ
 40
3.302
  9
$DIMEXO
 40
1.0
  9
$DIMDLI
 40
3.75
  9
$DIMRND
 40
0.0
  9
$DIMDLE
 40
0.0
  9
$DIMEXE
 40
1.0
  9
$DIMTP
 40
0.0
  9
$DIMTM
 40
0.0
  9
$DIMTXT
 40
4.9388888889
  9
$DIMCEN
 40
2.5
  9
$DIMTSZ
 40
0.0
  9
$DIMTOL
 70
     0
  9
$DIMLIM
 70
     0
  9
$DIMTIH
 70
     1
  9
$DIMTOH
 70
     1
  9
$DIMSE1
 70
     0
  9
$DIMSE2
 70
     0
  9
$DIMTAD
 70
     1
  9
$DIMZIN
 70
     0
  9
$DIMBLK
  1

  9
$DIMASO
 70
     1
  9
$DIMSHO
 70
     1
  9
$DIMPOST
  1

  9
$DIMAPOST
  1

  9
$DIMALT
 70
     0
  9
$DIMALTD
 70
     3
  9
$DIMALTF
 40
0.0393700787
  9
$DIMLFAC
 40
1.0
  9
$DIMTOFL
 70
     1
  9
$DIMTVP
 40
0.0
  9
$DIMTIX
 70
     0
  9
$DIMSOXD
 70
     0
  9
$DIMSAH
 70
     0
  9
$DIMBLK1
  1

  9
$DIMBLK2
  1

  9
$DIMSTYLE
  2
ISO-25
  9
$DIMCLRD
 70
     0
  9
$DIMCLRE
 70
     0
  9
$DIMCLRT
 70
     0
  9
$DIMTFAC
 40
1.0
  9
$DIMGAP
 40
1.524
  9
$DIMJUST
 70
     0
  9
$DIMSD1
 70
     0
  9
$DIMSD2
 70
     0
  9
$DIMTOLJ
 70
     0
  9
$DIMTZIN
 70
     0
  9
$DIMALTZ
 70
     0
  9
$DIMALTTZ
 70
     0
  9
$DIMUPT
 70
     0
  9
$DIMDEC
 70
     2
  9
$DIMTDEC
 70
     2
  9
$DIMALTU
 70
     2
  9
$DIMALTTD
 70
     3
  9
$DIMTXSTY
  7
Standard
  9
$DIMAUNIT
 70
     0
  9
$DIMADEC
 70
     2
  9
$DIMALTRND
 40
0.0
  9
$DIMAZIN
 70
     0
  9
$DIMDSEP
 70
    44
  9
$DIMATFIT
 70
     3
  9
$DIMFRAC
 70
     0
  9
$DIMLDRBLK
  1

  9
$DIMLUNIT
 70
     2
  9
$DIMLWD
 70
    -2
  9
$DIMLWE
 70
    -2
  9
$DIMTMOVE
 70
     0
  9
$LUNITS
 70
     2
  9
$LUPREC
 70
     2
  9
$SKETCHINC
 40
1.0
  9
$FILLETRAD
 40
10.0
  9
$AUNITS
 70
     0
  9
$AUPREC
 70
     2
  9
$MENU
  1
.
  9
$ELEVATION
 40
0.0
  9
$PELEVATION
 40
0.0
  9
$THICKNESS
 40
0.0
  9
$LIMCHECK
 70
     0
  9
$CHAMFERA
 40
0.0
  9
$CHAMFERB
 40
0.0
  9
$CHAMFERC
 40
0.0
  9
$CHAMFERD
 40
0.0
  9
$SKPOLY
 70
     0
  9
$TDCREATE
 40
2458717.719126435
  9
$TDUCREATE
 40
2458717.344126435
  9
$TDUPDATE
 40
2458717.719138322
  9
$TDUUPDATE
 40
2458717.344138322
  9
$TDINDWG
 40
0.0000000116
  9
$TDUSRTIMER
 40
0.0000000116
  9
$USRTIMER
 70
     1
  9
$ANGBASE
 50
0.0
  9
$ANGDIR
 70
     0
  9
$PDMODE
 70
     0
  9
$PDSIZE
 40
-1.0
  9
$PLINEWID
 40
0.0
  9
$SPLFRAME
 70
     0
  9
$SPLINETYPE
 70
     6
  9
$SPLINESEGS
 70
     8
  9
$HANDSEED
  5
353
  9
$SURFTAB1
 70
     6
  9
$SURFTAB2
 70
     6
  9
$SURFTYPE
 70
     6
  9
$SURFU
 70
     6
  9
$SURFV
 70
     6
  9
$UCSBASE
  2

  9
$UCSNAME
  2

  9
$UCSORG
 10
0.0
 20
0.0
 30
0.0
  9
$UCSXDIR
 10
1.0
 20
0.0
 30
0.0
  9
$UCSYDIR
 10
0.0
 20
1.0
 30
0.0
  9
$UCSORTHOREF
  2

  9
$UCSORTHOVIEW
 70
     0
  9
$UCSORGTOP
 10
0.0
 20
0.0
 30
0.0
  9
$UCSORGBOTTOM
 10
0.0
 20
0.0
 30
0.0
  9
$UCSORGLEFT
 10
0.0
 20
0.0
 30
0.0
  9
$UCSORGRIGHT
 10
0.0
 20
0.0
 30
0.0
  9
$UCSORGFRONT
 10
0.0
 20
0.0
 30
0.0
  9
$UCSORGBACK
 10
0.0
 20
0.0
 30
0.0
  9
$PUCSBASE
  2

  9
$PUCSNAME
  2

  9
$PUCSORG
 10
0.0
 20
0.0
 30
0.0
  9
$PUCSXDIR
 10
1.0
 20
0.0
 30
0.0
  9
$PUCSYDIR
 10
0.0
 20
1.0
 30
0.0
  9
$PUCSORTHOREF
  2

  9
$PUCSORTHOVIEW
 70
     0
  9
$PUCSORGTOP
 10
0.0
 20
0.0
 30
0.0
  9
$PUCSORGBOTTOM
 10
0.0
 20
0.0
 30
0.0
  9
$PUCSORGLEFT
 10
0.0
 20
0.0
 30
0.0
  9
$PUCSORGRIGHT
 10
0.0
 20
0.0
 30
0.0
  9
$PUCSORGFRONT
 10
0.0
 20
0.0
 30
0.0
  9
$PUCSORGBACK
 10
0.0
 20
0.0
 30
0.0
  9
$USERI1
 70
     0
  9
$USERI2
 70
     0
  9
$USERI3
 70
     0
  9
$USERI4
 70
     0
  9
$USERI5
 70
     0
  9
$USERR1
 40
0.0
  9
$USERR2
 40
0.0
  9
$USERR3
 40
0.0
  9
$USERR4
 40
0.0
  9
$USERR5
 40
0.0
  9
$WORLDVIEW
 70
     1
  9
$SHADEDGE
 70
     3
  9
$SHADEDIF
 70
    70
  9
$TILEMODE
 70
     1
  9
$MAXACTVP
 70
    64
  9
$PINSBASE
 10
0.0
 20
0.0
 30
0.0
  9
$PLIMCHECK
 70
     0
  9
$PEXTMIN
 10
1.0000000000E+20
 20
1.0000000000E+20
 30
1.0000000000E+20
  9
$PEXTMAX
 10
-1.0000000000E+20
 20
-1.0000000000E+20
 30
-1.0000000000E+20
  9
$PLIMMIN
 10
0.0
 20
0.0
  9
$PLIMMAX
 10
420.0
 20
297.0
  9
$UNITMODE
 70
     0
  9
$VISRETAIN
 70
     1
  9
$PLINEGEN
 70
     0
  9
$PSLTSCALE
 70
     1
  9
$TREEDEPTH
 70
  3020
  9
$CMLSTYLE
  2
Standard
  9
$CMLJUST
 70
     0
  9
$CMLSCALE
 40
20.0
  9
$PROXYGRAPHICS
 70
     1
  9
$MEASUREMENT
 70
     1
  9
$CELWEIGHT
370
    -1
  9
$ENDCAPS
280
     0
  9
$JOINSTYLE
280
     0
  9
$LWDISPLAY
290
     1
  9
$INSUNITS
 70
     4
  9
$HYPERLINKBASE
  1

  9
$STYLESHEET
  1

  9
$XEDIT
290
     1
  9
$CEPSNTYPE
380
     0
  9
$PSTYLEMODE
290
     1
  9
$FINGERPRINTGUID
  2
{6fff780a-1734-49ab-93cd-b585d3495c80}
  9
$VERSIONGUID
  2
{FAEB1C32-E019-11D5-929B-00C0DF256EC4}
  9
$EXTNAMES
290
     1
  9
$PSVPSCALE
 40
0.0
  9
$OLESTARTUP
290
     0
  0
ENDSEC
  0
SECTION
  2
CLASSES
  0
CLASS
  1
ACDBDICTIONARYWDFLT
  2
AcDbDictionaryWithDefault
  3
ObjectDBX Classes
 90
        0
280
     0
281
     0
  0
CLASS
  1
VISUALSTYLE
  2
AcDbVisualStyle
  3
ObjectDBX Classes
 90
     4095
280
     0
281
     0
  0
CLASS
  1
MATERIAL
  2
AcDbMaterial
  3
ObjectDBX Classes
 90
     1153
280
     0
281
     0
  0
CLASS
  1
SCALE
  2
AcDbScale
  3
ObjectDBX Classes
 90
     1153
280
     0
281
     0
  0
CLASS
  1
TABLESTYLE
  2
AcDbTableStyle
  3
ObjectDBX Classes
 90
     4095
280
     0
281
     0
  0
CLASS
  1
MLEADERSTYLE
  2
AcDbMLeaderStyle
  3
ACDB_MLEADERSTYLE_CLASS
 90
     4095
280
     0
281
     0
  0
CLASS
  1
SUN
  2
AcDbSun
  3
SCENEOE
 90
     1153
280
     0
281
     0
  0
CLASS
  1
ACDBPLACEHOLDER
  2
AcDbPlaceHolder
  3
ObjectDBX Classes
 90
        0
280
     0
281
     0
  0
CLASS
  1
LAYOUT
  2
AcDbLayout
  3
ObjectDBX Classes
 90
        0
280
     0
281
     0
  0
ENDSEC
  0
SECTION
  2
TABLES
  0
TABLE
  2
VPORT
  5
8
330
0
100
AcDbSymbolTable
 70
     1
  0
VPORT
  5
29
330
8
100
AcDbSymbolTableRecord
100
AcDbViewportTableRecord
  2
*Active
 70
     0
 10
0.0
 20
0.0
 11
1.0
 21
1.0
 12
148.5
 22
105.0
 13
0.0
 23
0.0
 14
10.0
 24
10.0
 15
10.0
 25
10.0
 16
0.0
 26
0.0
 36
1.0
 17
0.0
 27
0.0
 37
0.0
 40
210.0
 41
1.4142857143
 42
50.0
 43
0.0
 44
0.0
 50
0.0
 51
0.0
 71
     0
 72
  2000
 73
     1
 74
     3
 75
     0
 76
     0
 77
     0
 78
     0
281
     0
 65
     1
110
0.0
120
0.0
130
0.0
111
1.0
121
0.0
131
0.0
112
0.0
122
1.0
132
0.0
 79
     0
146
0.0
  0
ENDTAB
  0
TABLE
  2
LTYPE
  5
5
330
0
100
AcDbSymbolTable
 70
     6
  0
LTYPE
  5
14
330
5
100
AcDbSymbolTableRecord
100
AcDbLinetypeTableRecord
  2
ByBlock
 70
     0
  3

 72
    65
 73
     0
 40
0.0
  0
LTYPE
  5
15
330
5
100
AcDbSymbolTableRecord
100
AcDbLinetypeTableRecord
  2
ByLayer
 70
     0
  3

 72
    65
 73
     0
 40
0.0
  0
LTYPE
  5
16
330
5
100
AcDbSymbolTableRecord
100
AcDbLinetypeTableRecord
  2
Continuous
 70
     0
  3
Solid line
 72
    65
 73
     0
 40
0.0
  0
LTYPE
  5
6E
330
5
100
AcDbSymbolTableRecord
100
AcDbLinetypeTableRecord
  2
HIDDEN
 70
     0
  3
Hidden __ __ __ __ __ __ __ __ __ __ __ __ __ __
 72
    65
 73
     2
 40
1.905
 49
1.27
 74
     0
 49
-0.635
 74
     0
  0
LTYPE
  5
6F
330
5
100
AcDbSymbolTableRecord
100
AcDbLinetypeTableRecord
  2
PHANTOM
 70
     0
  3
Phantom ______  __  __  ______  __  __  ______
 72
    65
 73
     6
 40
12.7
 49
6.35
 74
     0
 49
-1.27
 74
     0
 49
1.27
 74
     0
 49
-1.27
 74
     0
 49
1.27
 74
     0
 49
-1.27
 74
     0
  0
LTYPE
  5
70
330
5
100
AcDbSymbolTableRecord
100
AcDbLinetypeTableRecord
  2
CENTER
 70
     0
  3
Center ____ _ ____ _ ____ _ ____ _ ____ _ ____
 72
    65
 73
     4
 40
10.16
 49
6.35
 74
     0
 49
-1.27
 74
     0
 49
1.27
 74
     0
 49
-1.27
 74
     0
  0
LTYPE
  5
71
330
5
100
AcDbSymbolTableRecord
100
AcDbLinetypeTableRecord
  2
CENTERX2
 70
     0
  3
Center (2x) ________  __  ________  __  _____
 72
    65
 73
     4
 40
20.32
 49
12.7
 74
     0
 49
-2.54
 74
     0
 49
2.54
 74
     0
 49
-2.54
 74
     0
  0
LTYPE
  5
72
330
5
100
AcDbSymbolTableRecord
100
AcDbLinetypeTableRecord
  2
DOT2
 70
     0
  3
Dot (.5x) ........................................
 72
    65
 73
     2
 40
0.635
 49
0.0
 74
     0
 49
-0.635
 74
     0
  0
ENDTAB
  0
TABLE
  2
LAYER
  5
2
330
0
100
AcDbSymbolTable
 70
     2
  0
LAYER
  5
10
330
2
100
AcDbSymbolTableRecord
100
AcDbLayerTableRecord
  2
0
 70
     0
 62
     7
  6
Continuous
370
    -3
390
F
  0
LAYER
  5
73
330
2
100
AcDbSymbolTableRecord
100
AcDbLayerTableRecord
  2
FORMAT
 70
     0
 62
     7
  6
Continuous
370
    -3
390
F
  0
ENDTAB
  0
TABLE
  2
STYLE
  5
3
330
0
100
AcDbSymbolTable
 70
     4
  0
STYLE
  5
11
330
3
100
AcDbSymbolTableRecord
100
AcDbTextStyleTableRecord
  2
Standard
 70
     0
 40
0.0
 41
1.0
 50
0.0
 71
     0
 42
3.5
  3
txt
  4
bigfont
  0
STYLE
  5
FE
330
3
100
AcDbSymbolTableRecord
100
AcDbTextStyleTableRecord
  2
SLDTEXTSTYLE0
 70
     0
 40
0.0
 41
0.75
 50
0.0
 71
     0
 42
3.5
  3
TXT
  4
bigfont
  0
STYLE
  5
10E
330
3
100
AcDbSymbolTableRecord
100
AcDbTextStyleTableRecord
  2
SLDTEXTSTYLE1
 70
     0
 40
0.0
 41
0.605
 50
0.0
 71
     0
 42
3.5
  3
TXT
  4
bigfont
  0
STYLE
  5
110
330
3
100
AcDbSymbolTableRecord
100
AcDbTextStyleTableRecord
  2
SLDTEXTSTYLE2
 70
     0
 40
0.0
 41
0.7
 50
0.0
 71
     0
 42
3.5
  3
TXT
  4
bigfont
  0
ENDTAB
  0
TABLE
  2
VIEW
  5
6
330
0
100
AcDbSymbolTable
 70
     0
  0
ENDTAB
  0
TABLE
  2
UCS
  5
7
330
0
100
AcDbSymbolTable
 70
     0
  0
ENDTAB
  0
TABLE
  2
APPID
  5
9
330
0
100
AcDbSymbolTable
 70
     1
  0
APPID
  5
12
330
9
100
AcDbSymbolTableRecord
100
AcDbRegAppTableRecord
  2
ACAD
 70
     0
  0
ENDTAB
  0
TABLE
  2
DIMSTYLE
  5
A
330
0
100
AcDbSymbolTable
 70
     9
100
AcDbDimStyleTable
  0
DIMSTYLE
105
27
330
A
100
AcDbSymbolTableRecord
100
AcDbDimStyleTableRecord
  2
ISO-25
 70
     0
 41
2.5
 42
0.625
 43
3.75
 44
1.25
 73
     0
 74
     0
 77
     1
 78
     8
140
2.5
141
2.5
143
0.0393700787
147
0.625
171
     3
172
     1
178
     0
271
     2
272
     2
274
     3
278
    44
283
     0
284
     8
340
11
  0
DIMSTYLE
105
13A
102
{ACAD_REACTORS
330
139
102
}
330
A
100
AcDbSymbolTableRecord
100
AcDbDimStyleTableRecord
  2
SLDDIMSTYLE0
 70
     0
 41
3.302
 44
0.0
 45
0.000000001
 73
     0
 74
     0
 77
     1
 78
    12
 79
     3
140
3.7041666667
147
0.9260416667
173
     1
178
     0
271
     1
272
     1
276
     2
284
    12
340
FE
  0
DIMSTYLE
105
145
102
{ACAD_REACTORS
330
144
330
261
102
}
330
A
100
AcDbSymbolTableRecord
100
AcDbDimStyleTableRecord
  2
SLDDIMSTYLE1
 70
     0
 41
3.302
 44
0.0
 45
0.000000001
 73
     0
 74
     0
 77
     1
 78
    12
 79
     3
140
3.7041666667
147
0.9260416667
172
     1
173
     1
178
     0
271
     2
272
     2
276
     2
284
    12
289
     0
340
FE
  0
DIMSTYLE
105
1BA
102
{ACAD_REACTORS
330
1B9
330
1CF
330
1D9
330
1E3
330
224
330
24A
102
}
330
A
100
AcDbSymbolTableRecord
100
AcDbDimStyleTableRecord
  2
SLDDIMSTYLE2
 70
     0
 41
3.302
 44
0.0
 45
0.000000001
 73
     0
 74
     0
 77
     1
 78
    12
 79
     3
140
3.7041666667
147
0.9260416667
173
     1
178
     0
271
     2
272
     2
276
     2
284
    12
340
FE
  0
DIMSTYLE
105
1C5
102
{ACAD_REACTORS
330
1C4
102
}
330
A
100
AcDbSymbolTableRecord
100
AcDbDimStyleTableRecord
  2
SLDDIMSTYLE3
 70
     0
 41
3.302
 44
0.0
 45
0.000000001
 73
     0
 74
     0
 77
     1
 78
     4
 79
     1
140
3.7041666667
147
0.9260416667
173
     1
178
     0
271
     2
272
     2
276
     2
284
    12
340
FE
  0
DIMSTYLE
105
1F8
330
A
100
AcDbSymbolTableRecord
100
AcDbDimStyleTableRecord
  2
SLDDIMSTYLE4
 70
     0
 41
3.302
 44
0.0
 45
0.000000001
146
3.302
147
0.0
173
     1
178
     0
271
     0
272
     0
276
     2
340
11
  0
DIMSTYLE
105
22F
102
{ACAD_REACTORS
330
22E
330
243
102
}
330
A
100
AcDbSymbolTableRecord
100
AcDbDimStyleTableRecord
  2
SLDDIMSTYLE5
 70
     0
 41
3.302
 44
0.0
 45
0.000000001
 73
     0
 74
     0
 77
     1
 78
    12
 79
     3
140
3.7041666667
141
0.0
147
0.9260416667
173
     1
178
     0
271
     2
272
     2
276
     2
284
    12
340
FE
  0
DIMSTYLE
105
237
102
{ACAD_REACTORS
330
236
102
}
330
A
100
AcDbSymbolTableRecord
100
AcDbDimStyleTableRecord
  2
SLDDIMSTYLE6
 70
     0
 41
3.302
 44
0.0
 45
0.000000001
 73
     0
 74
     0
 77
     1
 78
    12
 79
     3
140
3.7041666667
147
0.9260416667
172
     1
173
     1
178
     0
271
     1
272
     2
276
     2
284
    12
289
     0
340
FE
  0
DIMSTYLE
105
255
102
{ACAD_REACTORS
330
254
102
}
330
A
100
AcDbSymbolTableRecord
100
AcDbDimStyleTableRecord
  2
SLDDIMSTYLE7
 70
     0
 41
3.302
 44
0.0
 45
0.000000001
 73
     0
 74
     0
 77
     1
 78
    12
 79
     3
140
3.7041666667
147
0.9260416667
172
     1
173
     1
178
     0
271
     1
272
     1
276
     2
284
    12
289
     0
340
FE
  0
ENDTAB
  0
TABLE
  2
BLOCK_RECORD
  5
1
330
0
100
AcDbSymbolTable
 70
    20
  0
BLOCK_RECORD
  5
1F
330
1
100
AcDbSymbolTableRecord
100
AcDbBlockTableRecord
  2
*Model_Space
340
22
  0
BLOCK_RECORD
  5
1B
330
1
100
AcDbSymbolTableRecord
100
AcDbBlockTableRecord
  2
*Paper_Space
340
1E
  0
BLOCK_RECORD
  5
23
330
1
100
AcDbSymbolTableRecord
100
AcDbBlockTableRecord
  2
*Paper_Space0
340
26
  0
BLOCK_RECORD
  5
74
330
1
100
AcDbSymbolTableRecord
100
AcDbBlockTableRecord
  2
HDLOGOWK
340
0
102
{BLKREFS
331
FD
102
}
  0
BLOCK_RECORD
  5
13B
330
1
100
AcDbSymbolTableRecord
100
AcDbBlockTableRecord
  2
_D
340
0
  0
BLOCK_RECORD
  5
146
330
1
100
AcDbSymbolTableRecord
100
AcDbBlockTableRecord
  2
_D_1
340
0
  0
BLOCK_RECORD
  5
1BB
330
1
100
AcDbSymbolTableRecord
100
AcDbBlockTableRecord
  2
_D_2
340
0
  0
BLOCK_RECORD
  5
1C6
330
1
100
AcDbSymbolTableRecord
100
AcDbBlockTableRecord
  2
_D_3
340
0
  0
BLOCK_RECORD
  5
1D0
330
1
100
AcDbSymbolTableRecord
100
AcDbBlockTableRecord
  2
_D_4
340
0
  0
BLOCK_RECORD
  5
1DA
330
1
100
AcDbSymbolTableRecord
100
AcDbBlockTableRecord
  2
_D_5
340
0
  0
BLOCK_RECORD
  5
1E4
330
1
100
AcDbSymbolTableRecord
100
AcDbBlockTableRecord
  2
_D_6
340
0
  0
BLOCK_RECORD
  5
1ED
330
1
100
AcDbSymbolTableRecord
100
AcDbBlockTableRecord
  2
SW_NOTE_0
340
0
102
{BLKREFS
331
1F7
102
}
  0
BLOCK_RECORD
  5
225
330
1
100
AcDbSymbolTableRecord
100
AcDbBlockTableRecord
  2
_D_7
340
0
  0
BLOCK_RECORD
  5
230
330
1
100
AcDbSymbolTableRecord
100
AcDbBlockTableRecord
  2
_D_8
340
0
  0
BLOCK_RECORD
  5
238
330
1
100
AcDbSymbolTableRecord
100
AcDbBlockTableRecord
  2
_D_9
340
0
  0
BLOCK_RECORD
  5
244
330
1
100
AcDbSymbolTableRecord
100
AcDbBlockTableRecord
  2
_D_10
340
0
  0
BLOCK_RECORD
  5
24B
330
1
100
AcDbSymbolTableRecord
100
AcDbBlockTableRecord
  2
_D_11
340
0
  0
BLOCK_RECORD
  5
256
330
1
100
AcDbSymbolTableRecord
100
AcDbBlockTableRecord
  2
_D_12
340
0
  0
BLOCK_RECORD
  5
262
330
1
100
AcDbSymbolTableRecord
100
AcDbBlockTableRecord
  2
_D_13
340
0
  0
BLOCK_RECORD
  5
26D
330
1
100
AcDbSymbolTableRecord
100
AcDbBlockTableRecord
  2
SW_NOTE_0_1
340
0
102
{BLKREFS
331
277
102
}
  0
BLOCK_RECORD
  5
279
330
1
100
AcDbSymbolTableRecord
100
AcDbBlockTableRecord
  2
SW_CENTERMARKSYMBOL_0
340
0
102
{BLKREFS
331
284
102
}
  0
BLOCK_RECORD
  5
285
330
1
100
AcDbSymbolTableRecord
100
AcDbBlockTableRecord
  2
SW_CENTERMARKSYMBOL_1
340
0
102
{BLKREFS
331
290
102
}
  0
ENDTAB
  0
ENDSEC
  0
SECTION
  2
BLOCKS
  0
BLOCK
  5
20
330
1F
100
AcDbEntity
  8
0
100
AcDbBlockBegin
  2
*Model_Space
 70
     0
 10
0.0
 20
0.0
 30
0.0
  3
*Model_Space
  1

  0
ENDBLK
  5
21
330
1F
100
AcDbEntity
  8
0
100
AcDbBlockEnd
  0
BLOCK
  5
1C
330
1B
100
AcDbEntity
 67
     1
  8
0
100
AcDbBlockBegin
  2
*Paper_Space
 70
     0
 10
0.0
 20
0.0
 30
0.0
  3
*Paper_Space
  1

  0
ENDBLK
  5
1D
330
1B
100
AcDbEntity
 67
     1
  8
0
100
AcDbBlockEnd
  0
BLOCK
  5
24
330
23
100
AcDbEntity
  8
0
100
AcDbBlockBegin
  2
*Paper_Space0
 70
     0
 10
0.0
 20
0.0
 30
0.0
  3
*Paper_Space0
  1

  0
ENDBLK
  5
25
330
23
100
AcDbEntity
  8
0
100
AcDbBlockEnd
  0
BLOCK
  5
75
330
74
100
AcDbEntity
  8
0
100
AcDbBlockBegin
  2
HDLOGOWK
 70
     0
 10
0.0
 20
0.0
 30
0.0
  3
HDLOGOWK
  1

  0
ARC
  5
77
330
74
100
AcDbEntity
  8
0
  6
Continuous
 62
     7
370
    18
100
AcDbCircle
 10
50.4707540947
 20
24.3625852675
 30
0.0
 40
9.999992951841914
100
AcDbArc
 50
165.9637068132
 51
270.0000139576
  0
ARC
  5
78
330
74
100
AcDbEntity
  8
0
  6
Continuous
 62
     7
370
    18
100
AcDbCircle
 10
215.7133271573
 20
40.3631539754
 30
0.0
 40
14.00002486220112
100
AcDbArc
 50
347.0055124606
 51
90.0023965622
  0
ARC
  5
79
330
74
100
AcDbEntity
  8
0
  6
Continuous
 62
     7
370
    18
100
AcDbCircle
 10
214.7831779767
 20
40.3623726125
 30
0.0
 40
5.999998546612776
100
AcDbArc
 50
345.4256689891
 51
90.0007570592
  0
ARC
  5
7A
330
74
100
AcDbEntity
  8
0
  6
Continuous
 62
     7
370
    18
100
AcDbCircle
 10
211.4032675025
 20
27.8629877206
 30
0.0
 40
6.000029584963313
100
AcDbArc
 50
270.0032263403
 51
345.4256511313
  0
ARC
  5
7B
330
74
100
AcDbEntity
  8
0
  6
Continuous
 62
     7
370
    18
100
AcDbCircle
 10
216.1260212064
 20
24.3625506966
 30
0.0
 40
9.999982604287181
100
AcDbArc
 50
270.0001075755
 51
347.0055299079
  0
ARC
  5
7C
330
74
100
AcDbEntity
  8
0
  6
Continuous
 62
     7
370
    18
100
AcDbCircle
 10
56.1013496854
 20
28.0004912151
 30
0.0
 40
5.000017715786828
100
AcDbArc
 50
165.9640185413
 51
269.9998410189
  0
LINE
  5
7D
330
74
100
AcDbEntity
  8
0
  6
Continuous
 62
     7
370
    18
100
AcDbLine
 10
10.0000012875
 20
40.0000051498
 30
0.0
 11
19.9999965191
 21
40.0000051498
 31
0.0
  0
LINE
  5
7E
330
74
100
AcDbEntity
  8
0
  6
Continuous
 62
     7
370
    18
100
AcDbLine
 10
10.0000012875
 20
0.0
 30
0.0
 11
0.0
 21
0.0
 31
0.0
  0
LINE
  5
7F
330
74
100
AcDbEntity
  8
0
  6
Continuous
 62
     7
370
    18
100
AcDbLine
 10
0.0
 20
0.0
 30
0.0
 11
10.0000012875
 21
40.0000051498
 31
0.0
  0
LINE
  5
80
330
74
100
AcDbEntity
  8
0
  6
Continuous
 62
     7
370
    18
100
AcDbLine
 10
29.9999978065
 20
40.0000051498
 30
0.0
 11
39.9999930382
 21
40.0000051498
 31
0.0
  0
LINE
  5
81
330
74
100
AcDbEntity
  8
0
  6
Continuous
 62
     7
370
    18
100
AcDbLine
 10
39.9999930382
 20
40.0000051498
 30
0.0
 11
29.9999978065
 21
0.0
 31
0.0
  0
LINE
  5
82
330
74
100
AcDbEntity
  8
0
  6
Continuous
 62
     7
370
    18
100
AcDbLine
 10
29.9999978065
 20
0.0
 30
0.0
 11
19.9999965191
 21
0.0
 31
0.0
  0
LINE
  5
83
330
74
100
AcDbEntity
  8
0
  6
Continuous
 62
     7
370
    18
100
AcDbLine
 10
14.3750007153
 20
17.5000219345
 30
0.0
 11
24.3749959469
 21
17.5000219345
 31
0.0
  0
LINE
  5
84
330
74
100
AcDbEntity
  8
0
  6
Continuous
 62
     7
370
    18
100
AcDbLine
 10
16.2499952793
 20
25.0000001907
 30
0.0
 11
26.2499965668
 21
25.0000001907
 31
0.0
  0
LINE
  5
85
330
74
100
AcDbEntity
  8
0
  6
Continuous
 62
     7
370
    18
100
AcDbLine
 10
16.2499952793
 20
25.0000001907
 30
0.0
 11
19.9999965191
 21
40.0000051498
 31
0.0
  0
LINE
  5
86
330
74
100
AcDbEntity
  8
0
  6
Continuous
 62
     7
370
    18
100
AcDbLine
 10
14.3750007153
 20
17.5000219345
 30
0.0
 11
10.0000012875
 21
0.0
 31
0.0
  0
LINE
  5
87
330
74
100
AcDbEntity
  8
0
  6
Continuous
 62
     7
370
    18
100
AcDbLine
 10
26.2499965668
 20
25.0000001907
 30
0.0
 11
29.9999978065
 21
40.0000051498
 31
0.0
  0
LINE
  5
88
330
74
100
AcDbEntity
  8
0
  6
Continuous
 62
     7
370
    18
100
AcDbLine
 10
24.3749959469
 20
17.5000219345
 30
0.0
 11
19.9999965191
 21
0.0
 31
0.0
  0
LINE
  5
89
330
74
100
AcDbEntity
  8
0
  6
Continuous
 62
     7
370
    18
100
AcDbLine
 10
47.6974761963
 20
54.5004766464
 30
0.0
 11
57.6974472046
 21
54.5004766464
 31
0.0
  0
LINE
  5
8A
330
74
100
AcDbEntity
  8
0
  6
Continuous
 62
     7
370
    18
100
AcDbLine
 10
70.4998513222
 20
54.5004766464
 30
0.0
 11
80.4998465538
 21
54.5004766464
 31
0.0
  0
LINE
  5
8B
330
74
100
AcDbEntity
  8
0
  6
Continuous
 62
     7
370
    18
100
AcDbLine
 10
62.3748385429
 20
23.0004734993
 30
0.0
 11
70.4998513222
 21
54.5004766464
 31
0.0
  0
LINE
  5
8C
330
74
100
AcDbEntity
  8
0
  6
Continuous
 62
     7
370
    18
100
AcDbLine
 10
47.6974761963
 20
54.5004766464
 30
0.0
 11
40.7693380356
 21
26.7879482269
 31
0.0
  0
LINE
  5
8D
330
74
100
AcDbEntity
  8
0
  6
Continuous
 62
     7
370
    18
100
AcDbLine
 10
70.4653815269
 20
14.3625923157
 30
0.0
 11
80.4998465538
 21
54.5004766464
 31
0.0
  0
LINE
  5
8E
330
74
100
AcDbEntity
  8
0
  6
Continuous
 62
     7
370
    18
100
AcDbLine
 10
70.4653815269
 20
14.3625923157
 30
0.0
 11
50.4707565308
 21
14.3625923157
 31
0.0
  0
LINE
  5
8F
330
74
100
AcDbEntity
  8
0
  6
Continuous
 62
     7
370
    18
100
AcDbLine
 10
73.9653738022
 20
14.3625923157
 30
0.0
 11
83.9653932571
 21
54.3625732422
 31
0.0
  0
LINE
  5
90
330
74
100
AcDbEntity
  8
0
  6
Continuous
 62
     7
370
    18
100
AcDbLine
 10
116.4653959274
 20
14.3625923157
 30
0.0
 11
126.4653669357
 21
54.3625732422
 31
0.0
  0
LINE
  5
91
330
74
100
AcDbEntity
  8
0
  6
Continuous
 62
     7
370
    18
100
AcDbLine
 10
93.6630086899
 20
54.3625732422
 30
0.0
 11
98.1629883766
 21
31.8625658035
 31
0.0
  0
LINE
  5
92
330
74
100
AcDbEntity
  8
0
  6
Continuous
 62
     7
370
    18
100
AcDbLine
 10
98.1629883766
 20
31.8625658035
 30
0.0
 11
116.1629919052
 21
54.3625732422
 31
0.0
  0
LINE
  5
93
330
74
100
AcDbEntity
  8
0
  6
Continuous
 62
     7
370
    18
100
AcDbLine
 10
110.6553217888
 20
34.1223600388
 30
0.0
 11
93.4653342247
 21
12.3625932693
 31
0.0
  0
LINE
  5
94
330
74
100
AcDbEntity
  8
0
  6
Continuous
 62
     7
370
    18
100
AcDbLine
 10
110.6553217888
 20
34.1223600388
 30
0.0
 11
105.4653648376
 21
14.3625923157
 31
0.0
  0
LINE
  5
95
330
74
100
AcDbEntity
  8
0
  6
Continuous
 62
     7
370
    18
100
AcDbLine
 10
88.8141767502
 20
33.7577989578
 30
0.0
 11
93.4653342247
 21
12.3625932693
 31
0.0
  0
LINE
  5
96
330
74
100
AcDbEntity
  8
0
  6
Continuous
 62
     7
370
    18
100
AcDbLine
 10
88.8141767502
 20
33.7577989578
 30
0.0
 11
83.9653932571
 21
14.3625923157
 31
0.0
  0
LINE
  5
97
330
74
100
AcDbEntity
  8
0
  6
Continuous
 62
     7
370
    18
100
AcDbLine
 10
118.662887764
 20
14.3625680923
 30
0.0
 11
128.6629072189
 21
14.3625680923
 31
0.0
  0
LINE
  5
98
330
74
100
AcDbEntity
  8
0
  6
Continuous
 62
     7
370
    18
100
AcDbLine
 10
118.662887764
 20
14.3625680923
 30
0.0
 11
138.6628782272
 21
54.3625732422
 31
0.0
  0
LINE
  5
99
330
74
100
AcDbEntity
  8
0
  6
Continuous
 62
     7
370
    18
100
AcDbLine
 10
143.662875843
 20
14.3625680923
 30
0.0
 11
153.662895298
 21
14.3625680923
 31
0.0
  0
LINE
  5
9A
330
74
100
AcDbEntity
  8
0
  6
Continuous
 62
     7
370
    18
100
AcDbLine
 10
153.662895298
 20
14.3625680923
 30
0.0
 11
148.6629097939
 21
54.3625732422
 31
0.0
  0
LINE
  5
9B
330
74
100
AcDbEntity
  8
0
  6
Continuous
 62
     7
370
    18
100
AcDbLine
 10
138.6628782272
 20
54.3625732422
 30
0.0
 11
148.6629097939
 21
54.3625732422
 31
0.0
  0
LINE
  5
9C
330
74
100
AcDbEntity
  8
0
  6
Continuous
 62
     7
370
    18
100
AcDbLine
 10
140.6629014969
 20
38.3625566483
 30
0.0
 11
134.9128890991
 21
26.862556076
 31
0.0
  0
LINE
  5
9D
330
74
100
AcDbEntity
  8
0
  6
Continuous
 62
     7
370
    18
100
AcDbLine
 10
142.1003743172
 20
26.862556076
 30
0.0
 11
140.6629014969
 21
38.3625566483
 31
0.0
  0
LINE
  5
9E
330
74
100
AcDbEntity
  8
0
  6
Continuous
 62
     7
370
    18
100
AcDbLine
 10
134.9128890991
 20
26.862556076
 30
0.0
 11
142.1003743172
 21
26.862556076
 31
0.0
  0
LINE
  5
9F
330
74
100
AcDbEntity
  8
0
  6
Continuous
 62
     7
370
    18
100
AcDbLine
 10
131.162899971
 20
19.3625778198
 30
0.0
 11
143.03791399
 21
19.3625778198
 31
0.0
  0
LINE
  5
A0
330
74
100
AcDbEntity
  8
0
  6
Continuous
 62
     7
370
    18
100
AcDbLine
 10
131.162899971
 20
19.3625778198
 30
0.0
 11
128.6629072189
 21
14.3625680923
 31
0.0
  0
LINE
  5
A1
330
74
100
AcDbEntity
  8
0
  6
Continuous
 62
     7
370
    18
100
AcDbLine
 10
143.03791399
 20
19.3625778198
 30
0.0
 11
143.662875843
 21
14.3625680923
 31
0.0
  0
LINE
  5
A2
330
74
100
AcDbEntity
  8
0
  6
Continuous
 62
     7
370
    18
100
AcDbLine
 10
165.6627926826
 20
54.3625490189
 30
0.0
 11
175.6628121376
 21
54.3625490189
 31
0.0
  0
LINE
  5
A3
330
74
100
AcDbEntity
  8
0
  6
Continuous
 62
     7
370
    18
100
AcDbLine
 10
165.6627926826
 20
14.3625680923
 30
0.0
 11
155.6628216743
 21
14.3625680923
 31
0.0
  0
LINE
  5
A4
330
74
100
AcDbEntity
  8
0
  6
Continuous
 62
     7
370
    18
100
AcDbLine
 10
155.6628216743
 20
14.3625680923
 30
0.0
 11
165.6627926826
 21
54.3625490189
 31
0.0
  0
LINE
  5
A5
330
74
100
AcDbEntity
  8
0
  6
Continuous
 62
     7
370
    18
100
AcDbLine
 10
188.1628243446
 20
54.3625490189
 30
0.0
 11
198.1627953529
 21
54.3625490189
 31
0.0
  0
LINE
  5
A6
330
74
100
AcDbEntity
  8
0
  6
Continuous
 62
     7
370
    18
100
AcDbLine
 10
198.1627953529
 20
54.3625490189
 30
0.0
 11
188.1628243446
 21
14.3625680923
 31
0.0
  0
LINE
  5
A7
330
74
100
AcDbEntity
  8
0
  6
Continuous
 62
     7
370
    18
100
AcDbLine
 10
188.1628243446
 20
14.3625680923
 30
0.0
 11
178.9628045082
 21
14.3625680923
 31
0.0
  0
LINE
  5
A8
330
74
100
AcDbEntity
  8
0
  6
Continuous
 62
     7
370
    18
100
AcDbLine
 10
183.1627903938
 20
34.3625585556
 30
0.0
 11
175.6628121376
 21
54.3625490189
 31
0.0
  0
LINE
  5
A9
330
74
100
AcDbEntity
  8
0
  6
Continuous
 62
     7
370
    18
100
AcDbLine
 10
183.1627903938
 20
34.3625585556
 30
0.0
 11
188.1628243446
 21
54.3625490189
 31
0.0
  0
LINE
  5
AA
330
74
100
AcDbEntity
  8
0
  6
Continuous
 62
     7
370
    18
100
AcDbLine
 10
170.6628266335
 20
34.3625827789
 30
0.0
 11
178.9628045082
 21
14.3625680923
 31
0.0
  0
LINE
  5
AB
330
74
100
AcDbEntity
  8
0
  6
Continuous
 62
     7
370
    18
100
AcDbLine
 10
170.6628266335
 20
34.3625827789
 30
0.0
 11
165.6627926826
 21
14.3625680923
 31
0.0
  0
LINE
  5
AC
330
74
100
AcDbEntity
  8
0
  6
Continuous
 62
     7
370
    18
100
AcDbLine
 10
201.6628239632
 20
54.3620645523
 30
0.0
 11
191.6627560616
 21
14.3625680923
 31
0.0
  0
LINE
  5
AD
330
74
100
AcDbEntity
  8
0
  6
Continuous
 62
     7
370
    18
100
AcDbLine
 10
209.8083054543
 20
46.3622984886
 30
0.0
 11
203.5144066811
 21
21.8625705719
 31
0.0
  0
LINE
  5
AE
330
74
100
AcDbEntity
  8
0
  6
Continuous
 62
     7
370
    18
100
AcDbLine
 10
201.6629693031
 20
54.3625732422
 30
0.0
 11
215.7127415657
 21
54.3631788254
 31
0.0
  0
LINE
  5
AF
330
74
100
AcDbEntity
  8
0
  6
Continuous
 62
     7
370
    18
100
AcDbLine
 10
209.8083054543
 20
46.3622984886
 30
0.0
 11
214.7830986977
 21
46.3623711586
 31
0.0
  0
LINE
  5
B0
330
74
100
AcDbEntity
  8
0
  6
Continuous
 62
     7
370
    18
100
AcDbLine
 10
220.5901085854
 20
38.8525582314
 30
0.0
 11
217.2102276802
 21
26.3531637192
 31
0.0
  0
LINE
  5
B1
330
74
100
AcDbEntity
  8
0
  6
Continuous
 62
     7
370
    18
100
AcDbLine
 10
203.5144066811
 20
21.8625705719
 30
0.0
 11
211.4036053658
 21
21.8629581451
 31
0.0
  0
LINE
  5
B2
330
74
100
AcDbEntity
  8
0
  6
Continuous
 62
     7
370
    18
100
AcDbLine
 10
229.3548352242
 20
37.2151460648
 30
0.0
 11
225.8699219704
 21
22.1139844894
 31
0.0
  0
LINE
  5
B3
330
74
100
AcDbEntity
  8
0
  6
Continuous
 62
     7
370
    18
100
AcDbLine
 10
191.6627560616
 20
14.3625680923
 30
0.0
 11
216.1260399818
 21
14.3625680923
 31
0.0
  0
LINE
  5
B4
330
74
100
AcDbEntity
  8
0
  6
Continuous
 62
     7
370
    18
100
AcDbLine
 10
225.0426953316
 20
14.3625680923
 30
0.0
 11
235.0427147865
 21
14.3625680923
 31
0.0
  0
LINE
  5
B5
330
74
100
AcDbEntity
  8
0
  6
Continuous
 62
     7
370
    18
100
AcDbLine
 10
225.0426953316
 20
14.3625680923
 30
0.0
 11
245.0426857948
 21
54.3625732422
 31
0.0
  0
LINE
  5
B6
330
74
100
AcDbEntity
  8
0
  6
Continuous
 62
     7
370
    18
100
AcDbLine
 10
250.042671299
 20
14.3625680923
 30
0.0
 11
260.0426907539
 21
14.3625680923
 31
0.0
  0
LINE
  5
B7
330
74
100
AcDbEntity
  8
0
  6
Continuous
 62
     7
370
    18
100
AcDbLine
 10
260.0426907539
 20
14.3625680923
 30
0.0
 11
255.0427052498
 21
54.3625732422
 31
0.0
  0
LINE
  5
B8
330
74
100
AcDbEntity
  8
0
  6
Continuous
 62
     7
370
    18
100
AcDbLine
 10
245.0426857948
 20
54.3625732422
 30
0.0
 11
255.0427052498
 21
54.3625732422
 31
0.0
  0
LINE
  5
B9
330
74
100
AcDbEntity
  8
0
  6
Continuous
 62
     7
370
    18
100
AcDbLine
 10
247.0427090645
 20
38.3625566483
 30
0.0
 11
241.2926724434
 21
26.862556076
 31
0.0
  0
LINE
  5
BA
330
74
100
AcDbEntity
  8
0
  6
Continuous
 62
     7
370
    18
100
AcDbLine
 10
248.4801697731
 20
26.862556076
 30
0.0
 11
247.0427090645
 21
38.3625566483
 31
0.0
  0
LINE
  5
BB
330
74
100
AcDbEntity
  8
0
  6
Continuous
 62
     7
370
    18
100
AcDbLine
 10
241.2926724434
 20
26.862556076
 30
0.0
 11
248.4801697731
 21
26.862556076
 31
0.0
  0
LINE
  5
BC
330
74
100
AcDbEntity
  8
0
  6
Continuous
 62
     7
370
    18
100
AcDbLine
 10
237.5427075386
 20
19.3625778198
 30
0.0
 11
249.417709446
 21
19.3625778198
 31
0.0
  0
LINE
  5
BD
330
74
100
AcDbEntity
  8
0
  6
Continuous
 62
     7
370
    18
100
AcDbLine
 10
237.5427075386
 20
19.3625778198
 30
0.0
 11
235.0427147865
 21
14.3625680923
 31
0.0
  0
LINE
  5
BE
330
74
100
AcDbEntity
  8
0
  6
Continuous
 62
     7
370
    18
100
AcDbLine
 10
249.417709446
 20
19.3625778198
 30
0.0
 11
250.042671299
 21
14.3625680923
 31
0.0
  0
LINE
  5
BF
330
74
100
AcDbEntity
  8
0
  6
Continuous
 62
     7
370
    18
100
AcDbLine
 10
281.5425896645
 20
54.3625732422
 30
0.0
 11
271.5426186562
 21
54.3625732422
 31
0.0
  0
LINE
  5
C0
330
74
100
AcDbEntity
  8
0
  6
Continuous
 62
     7
370
    18
100
AcDbLine
 10
264.0425919533
 20
14.3625680923
 30
0.0
 11
274.0426114082
 21
14.3625680923
 31
0.0
  0
LINE
  5
C1
330
74
100
AcDbEntity
  8
0
  6
Continuous
 62
     7
370
    18
100
AcDbLine
 10
261.5425992012
 20
54.3625732422
 30
0.0
 11
271.5426186562
 21
54.3625732422
 31
0.0
  0
LINE
  5
C2
330
74
100
AcDbEntity
  8
0
  6
Continuous
 62
     7
370
    18
100
AcDbLine
 10
281.5425896645
 20
54.3625732422
 30
0.0
 11
291.5426091194
 21
54.3625732422
 31
0.0
  0
LINE
  5
C3
330
74
100
AcDbEntity
  8
0
  6
Continuous
 62
     7
370
    18
100
AcDbLine
 10
260.1363381386
 20
46.8625707626
 30
0.0
 11
261.5425992012
 21
54.3625732422
 31
0.0
  0
LINE
  5
C4
330
74
100
AcDbEntity
  8
0
  6
Continuous
 62
     7
370
    18
100
AcDbLine
 10
290.1363480568
 20
46.8625465393
 30
0.0
 11
291.5426091194
 21
54.3625732422
 31
0.0
  0
LINE
  5
C5
330
74
100
AcDbEntity
  8
0
  6
Continuous
 62
     7
370
    18
100
AcDbLine
 10
280.1363286018
 20
46.8625465393
 30
0.0
 11
290.1363480568
 21
46.8625465393
 31
0.0
  0
LINE
  5
C6
330
74
100
AcDbEntity
  8
0
  6
Continuous
 62
     7
370
    18
100
AcDbLine
 10
280.1363286018
 20
46.8625465393
 30
0.0
 11
274.0426114082
 21
14.3625680923
 31
0.0
  0
LINE
  5
C7
330
74
100
AcDbEntity
  8
0
  6
Continuous
 62
     7
370
    18
100
AcDbLine
 10
270.1363575935
 20
46.862594986
 30
0.0
 11
264.0425919533
 21
14.3625680923
 31
0.0
  0
LINE
  5
C8
330
74
100
AcDbEntity
  8
0
  6
Continuous
 62
     7
370
    18
100
AcDbLine
 10
270.1363575935
 20
46.8625707626
 30
0.0
 11
260.1363381386
 21
46.8625707626
 31
0.0
  0
LINE
  5
C9
330
74
100
AcDbEntity
  8
0
  6
Continuous
 62
     7
370
    18
100
AcDbLine
 10
278.5425789833
 20
14.3625680923
 30
0.0
 11
288.5425984383
 21
14.3625680923
 31
0.0
  0
LINE
  5
CA
330
74
100
AcDbEntity
  8
0
  6
Continuous
 62
     7
370
    18
100
AcDbLine
 10
278.5425789833
 20
14.3625680923
 30
0.0
 11
298.5425694466
 21
54.3625732422
 31
0.0
  0
LINE
  5
CB
330
74
100
AcDbEntity
  8
0
  6
Continuous
 62
     7
370
    18
100
AcDbLine
 10
303.5425549507
 20
14.3625680923
 30
0.0
 11
313.5425744057
 21
14.3625680923
 31
0.0
  0
LINE
  5
CC
330
74
100
AcDbEntity
  8
0
  6
Continuous
 62
     7
370
    18
100
AcDbLine
 10
313.5425744057
 20
14.3625680923
 30
0.0
 11
308.5425889015
 21
54.3625732422
 31
0.0
  0
LINE
  5
CD
330
74
100
AcDbEntity
  8
0
  6
Continuous
 62
     7
370
    18
100
AcDbLine
 10
298.5425694466
 20
54.3625732422
 30
0.0
 11
308.5425889015
 21
54.3625732422
 31
0.0
  0
LINE
  5
CE
330
74
100
AcDbEntity
  8
0
  6
Continuous
 62
     7
370
    18
100
AcDbLine
 10
300.5425927162
 20
38.3625566483
 30
0.0
 11
294.7926045418
 21
26.862556076
 31
0.0
  0
LINE
  5
CF
330
74
100
AcDbEntity
  8
0
  6
Continuous
 62
     7
370
    18
100
AcDbLine
 10
301.9800534248
 20
26.862556076
 30
0.0
 11
300.5425927162
 21
38.3625566483
 31
0.0
  0
LINE
  5
D0
330
74
100
AcDbEntity
  8
0
  6
Continuous
 62
     7
370
    18
100
AcDbLine
 10
294.7926045418
 20
26.862556076
 30
0.0
 11
301.9800534248
 21
26.862556076
 31
0.0
  0
LINE
  5
D1
330
74
100
AcDbEntity
  8
0
  6
Continuous
 62
     7
370
    18
100
AcDbLine
 10
291.0425911903
 20
19.3625778198
 30
0.0
 11
302.9175930977
 21
19.3625778198
 31
0.0
  0
LINE
  5
D2
330
74
100
AcDbEntity
  8
0
  6
Continuous
 62
     7
370
    18
100
AcDbLine
 10
291.0425911903
 20
19.3625778198
 30
0.0
 11
288.5425984383
 21
14.3625680923
 31
0.0
  0
LINE
  5
D3
330
74
100
AcDbEntity
  8
0
  6
Continuous
 62
     7
370
    18
100
AcDbLine
 10
302.9175930977
 20
19.3625778198
 30
0.0
 11
303.5425549507
 21
14.3625680923
 31
0.0
  0
LINE
  5
D4
330
74
100
AcDbEntity
  8
0
  6
Continuous
 62
     7
370
    18
100
AcDbLine
 10
83.9653932571
 20
54.3625732422
 30
0.0
 11
93.6630086899
 21
54.3625732422
 31
0.0
  0
LINE
  5
D5
330
74
100
AcDbEntity
  8
0
  6
Continuous
 62
     7
370
    18
100
AcDbLine
 10
126.4653669357
 20
54.3625732422
 30
0.0
 11
116.1629919052
 21
54.3625732422
 31
0.0
  0
LINE
  5
D6
330
74
100
AcDbEntity
  8
0
  6
Continuous
 62
     7
370
    18
100
AcDbLine
 10
116.4653959274
 20
14.3625680923
 30
0.0
 11
105.4653648376
 21
14.3625680923
 31
0.0
  0
LINE
  5
D7
330
74
100
AcDbEntity
  8
0
  6
Continuous
 62
     7
370
    18
100
AcDbLine
 10
73.9653616905
 20
14.3625680923
 30
0.0
 11
83.9653811455
 21
14.3625680923
 31
0.0
  0
LINE
  5
D8
330
74
100
AcDbEntity
  8
0
  6
Continuous
 62
     7
370
    18
100
AcDbLine
 10
57.6974472046
 20
54.5004766464
 30
0.0
 11
51.2506144524
 21
29.2131514549
 31
0.0
  0
LINE
  5
D9
330
74
100
AcDbEntity
  8
0
  6
Continuous
 62
     7
370
    18
100
AcDbLine
 10
62.3748385429
 20
23.0004734993
 30
0.0
 11
56.1013358116
 21
23.0004734993
 31
0.0
  0
ENDBLK
  5
76
330
74
100
AcDbEntity
  8
0
100
AcDbBlockEnd
  0
BLOCK
  5
13C
330
13B
100
AcDbEntity
  8
0
100
AcDbBlockBegin
  2
_D
 70
     0
 10
0.0
 20
0.0
 30
0.0
  3
_D
  1

  0
SOLID
  5
13E
330
13B
100
AcDbEntity
  8
0
  6
Continuous
 62
     7
370
    18
100
AcDbTrace
 10
46.2739030639
 20
77.5939049856
 30
0.0
 11
45.7659030639
 21
74.2919049856
 31
0.0
 12
46.7819030639
 22
74.2919049856
 32
0.0
 13
46.7819030639
 23
74.2919049856
 33
0.0
  0
SOLID
  5
13F
330
13B
100
AcDbEntity
  8
0
  6
Continuous
 62
     7
370
    18
100
AcDbTrace
 10
46.2739030639
 20
52.3939049856
 30
0.0
 11
46.7819030639
 21
55.6959049856
 31
0.0
 12
45.7659030639
 22
55.6959049856
 32
0.0
 13
45.7659030639
 23
55.6959049856
 33
0.0
  0
LINE
  5
140
330
13B
100
AcDbEntity
  8
0
  6
Continuous
 62
     7
370
     0
100
AcDbLine
 10
69.3223030639
 20
77.5939049856
 30
0.0
 11
45.2739030639
 21
77.5939049856
 31
0.0
  0
LINE
  5
141
330
13B
100
AcDbEntity
  8
0
  6
Continuous
 62
     7
370
     0
100
AcDbLine
 10
55.2739030639
 20
52.3939049856
 30
0.0
 11
45.2739030639
 21
52.3939049856
 31
0.0
  0
LINE
  5
142
330
13B
100
AcDbEntity
  8
0
  6
Continuous
 62
     7
370
     0
100
AcDbLine
 10
46.2739030639
 20
77.5939049856
 30
0.0
 11
46.2739030639
 21
52.3939049856
 31
0.0
  0
MTEXT
  5
143
330
13B
100
AcDbEntity
  8
0
  6
Continuous
 62
     7
370
    18
100
AcDbMText
 10
41.4989811947
 20
60.205926735
 30
0.0
 40
3.7041666667
 41
0.0
 71
     1
 72
     1
  1
25.2
  7
SLDTEXTSTYLE0
 11
-7.044195017643634E-15
 21
1.0
 31
0.0
 73
     1
 44
1.0
  0
ENDBLK
  5
13D
330
13B
100
AcDbEntity
  8
0
100
AcDbBlockEnd
  0
BLOCK
  5
147
330
146
100
AcDbEntity
  8
0
100
AcDbBlockBegin
  2
_D_1
 70
     0
 10
0.0
 20
0.0
 30
0.0
  3
_D_1
  1

  0
SOLID
  5
149
330
146
100
AcDbEntity
  8
0
  6
Continuous
 62
     7
370
    18
100
AcDbTrace
 10
136.2739030639
 20
52.3939049856
 30
0.0
 11
135.7659030639
 21
49.0919049856
 31
0.0
 12
136.7819030639
 22
49.0919049856
 32
0.0
 13
136.7819030639
 23
49.0919049856
 33
0.0
  0
SOLID
  5
14A
330
146
100
AcDbEntity
  8
0
  6
Continuous
 62
     7
370
    18
100
AcDbTrace
 10
136.2739030639
 20
53.5939049856
 30
0.0
 11
136.7819030639
 21
56.8959049856
 31
0.0
 12
135.7659030639
 22
56.8959049856
 32
0.0
 13
135.7659030639
 23
56.8959049856
 33
0.0
  0
LINE
  5
14B
330
146
100
AcDbEntity
  8
0
  6
Continuous
 62
     7
370
     0
100
AcDbLine
 10
127.2739030639
 20
52.3939049856
 30
0.0
 11
137.2739030639
 21
52.3939049856
 31
0.0
  0
LINE
  5
14C
330
146
100
AcDbEntity
  8
0
  6
Continuous
 62
     7
370
     0
100
AcDbLine
 10
127.2739030639
 20
53.5939049856
 30
0.0
 11
137.2739030639
 21
53.5939049856
 31
0.0
  0
LINE
  5
14D
330
146
100
AcDbEntity
  8
0
  6
Continuous
 62
     7
370
     0
100
AcDbLine
 10
136.2739030639
 20
52.3939049856
 30
0.0
 11
136.2739030639
 21
46.0439049856
 31
0.0
  0
LINE
  5
14E
330
146
100
AcDbEntity
  8
0
  6
Continuous
 62
     7
370
     0
100
AcDbLine
 10
136.2739030639
 20
52.3939049856
 30
0.0
 11
136.2739030639
 21
53.5939049856
 31
0.0
  0
LINE
  5
14F
330
146
100
AcDbEntity
  8
0
  6
Continuous
 62
     7
370
     0
100
AcDbLine
 10
136.2739030639
 20
53.5939049856
 30
0.0
 11
136.2739030639
 21
67.0345020948
 31
0.0
  0
MTEXT
  5
150
330
146
100
AcDbEntity
  8
0
  6
Continuous
 62
     7
370
    18
100
AcDbMText
 10
131.4989811947
 20
55.5310068188
 30
0.0
 40
3.7041666667
 41
0.0
 71
     1
 72
     1
  1
t=1.2
  7
SLDTEXTSTYLE0
 11
6.123233995736766E-17
 21
1.0
 31
0.0
 73
     1
 44
1.0
  0
ENDBLK
  5
148
330
146
100
AcDbEntity
  8
0
100
AcDbBlockEnd
  0
BLOCK
  5
1BC
330
1BB
100
AcDbEntity
  8
0
100
AcDbBlockBegin
  2
_D_2
 70
     0
 10
0.0
 20
0.0
 30
0.0
  3
_D_2
  1

  0
SOLID
  5
1BE
330
1BB
100
AcDbEntity
  8
0
  6
Continuous
 62
     7
370
    18
100
AcDbTrace
 10
46.2739030639
 20
168.2411381956
 30
0.0
 11
45.7659030639
 21
164.9391381956
 31
0.0
 12
46.7819030639
 22
164.9391381956
 32
0.0
 13
46.7819030639
 23
164.9391381956
 33
0.0
  0
SOLID
  5
1BF
330
1BB
100
AcDbEntity
  8
0
  6
Continuous
 62
     7
370
    18
100
AcDbTrace
 10
46.2739030639
 20
115.2411381956
 30
0.0
 11
46.7819030639
 21
118.5431381956
 31
0.0
 12
45.7659030639
 22
118.5431381956
 32
0.0
 13
45.7659030639
 23
118.5431381956
 33
0.0
  0
LINE
  5
1C0
330
1BB
100
AcDbEntity
  8
0
  6
Continuous
 62
     7
370
     0
100
AcDbLine
 10
56.9772853163
 20
168.2411381956
 30
0.0
 11
45.2739030639
 21
168.2411381956
 31
0.0
  0
LINE
  5
1C1
330
1BB
100
AcDbEntity
  8
0
  6
Continuous
 62
     7
370
     0
100
AcDbLine
 10
56.9772853163
 20
115.2411381956
 30
0.0
 11
45.2739030639
 21
115.2411381956
 31
0.0
  0
LINE
  5
1C2
330
1BB
100
AcDbEntity
  8
0
  6
Continuous
 62
     7
370
     0
100
AcDbLine
 10
46.2739030639
 20
168.2411381956
 30
0.0
 11
46.2739030639
 21
115.2411381956
 31
0.0
  0
MTEXT
  5
1C3
330
1BB
100
AcDbEntity
  8
0
  6
Continuous
 62
     7
370
    18
100
AcDbMText
 10
41.4989811947
 20
139.7207606679
 30
0.0
 40
3.7041666667
 41
0.0
 71
     1
 72
     1
  1
53
  7
SLDTEXTSTYLE0
 11
-7.044195017643634E-15
 21
1.0
 31
0.0
 73
     1
 44
1.0
  0
ENDBLK
  5
1BD
330
1BB
100
AcDbEntity
  8
0
100
AcDbBlockEnd
  0
BLOCK
  5
1C7
330
1C6
100
AcDbEntity
  8
0
100
AcDbBlockBegin
  2
_D_3
 70
     0
 10
0.0
 20
0.0
 30
0.0
  3
_D_3
  1

  0
SOLID
  5
1C9
330
1C6
100
AcDbEntity
  8
0
  6
Continuous
 62
     7
370
    18
100
AcDbTrace
 10
71.5223030639
 20
183.2130287577
 30
0.0
 11
74.8243030639
 21
182.7050287577
 31
0.0
 12
74.8243030639
 22
183.7210287577
 32
0.0
 13
74.8243030639
 23
183.7210287577
 33
0.0
  0
SOLID
  5
1CA
330
1C6
100
AcDbEntity
  8
0
  6
Continuous
 62
     7
370
    18
100
AcDbTrace
 10
111.0255030639
 20
183.2130287577
 30
0.0
 11
107.7235030639
 21
183.7210287577
 31
0.0
 12
107.7235030639
 22
182.7050287577
 32
0.0
 13
107.7235030639
 23
182.7050287577
 33
0.0
  0
LINE
  5
1CB
330
1C6
100
AcDbEntity
  8
0
  6
Continuous
 62
     7
370
     0
100
AcDbLine
 10
71.5223030639
 20
149.1411381956
 30
0.0
 11
71.5223030639
 21
184.2130287577
 31
0.0
  0
LINE
  5
1CC
330
1C6
100
AcDbEntity
  8
0
  6
Continuous
 62
     7
370
     0
100
AcDbLine
 10
111.0255030639
 20
149.1411381956
 30
0.0
 11
111.0255030639
 21
184.2130287577
 31
0.0
  0
LINE
  5
1CD
330
1C6
100
AcDbEntity
  8
0
  6
Continuous
 62
     7
370
     0
100
AcDbLine
 10
71.5223030639
 20
183.2130287577
 30
0.0
 11
111.0255030639
 21
183.2130287577
 31
0.0
  0
MTEXT
  5
1CE
330
1C6
100
AcDbEntity
  8
0
  6
Continuous
 62
     7
370
    18
100
AcDbMText
 10
85.1174408192
 20
187.9879506269
 30
0.0
 40
3.7041666667
 41
0.0
 71
     1
 72
     1
  1
39.50
  7
SLDTEXTSTYLE0
 73
     1
 44
1.0
  0
ENDBLK
  5
1C8
330
1C6
100
AcDbEntity
  8
0
100
AcDbBlockEnd
  0
BLOCK
  5
1D1
330
1D0
100
AcDbEntity
  8
0
100
AcDbBlockBegin
  2
_D_4
 70
     0
 10
0.0
 20
0.0
 30
0.0
  3
_D_4
  1

  0
SOLID
  5
1D3
330
1D0
100
AcDbEntity
  8
0
  6
Continuous
 62
     7
370
    18
100
AcDbTrace
 10
61.2739030639
 20
192.7411381956
 30
0.0
 11
64.5759030639
 21
192.2331381956
 31
0.0
 12
64.5759030639
 22
193.2491381956
 32
0.0
 13
64.5759030639
 23
193.2491381956
 33
0.0
  0
SOLID
  5
1D4
330
1D0
100
AcDbEntity
  8
0
  6
Continuous
 62
     7
370
    18
100
AcDbTrace
 10
121.2739030639
 20
192.7411381956
 30
0.0
 11
117.9719030639
 21
193.2491381956
 31
0.0
 12
117.9719030639
 22
192.2331381956
 32
0.0
 13
117.9719030639
 23
192.2331381956
 33
0.0
  0
LINE
  5
1D5
330
1D0
100
AcDbEntity
  8
0
  6
Continuous
 62
     7
370
     0
100
AcDbLine
 10
61.2739030639
 20
112.7411381956
 30
0.0
 11
61.2739030639
 21
193.7411381956
 31
0.0
  0
LINE
  5
1D6
330
1D0
100
AcDbEntity
  8
0
  6
Continuous
 62
     7
370
     0
100
AcDbLine
 10
121.2739030639
 20
112.7411381956
 30
0.0
 11
121.2739030639
 21
193.7411381956
 31
0.0
  0
LINE
  5
1D7
330
1D0
100
AcDbEntity
  8
0
  6
Continuous
 62
     7
370
     0
100
AcDbLine
 10
61.2739030639
 20
192.7411381956
 30
0.0
 11
121.2739030639
 21
192.7411381956
 31
0.0
  0
MTEXT
  5
1D8
330
1D0
100
AcDbEntity
  8
0
  6
Continuous
 62
     7
370
    18
100
AcDbMText
 10
88.5369355412
 20
197.5160600648
 30
0.0
 40
3.7041666667
 41
0.0
 71
     1
 72
     1
  1
60
  7
SLDTEXTSTYLE0
 73
     1
 44
1.0
  0
ENDBLK
  5
1D2
330
1D0
100
AcDbEntity
  8
0
100
AcDbBlockEnd
  0
BLOCK
  5
1DB
330
1DA
100
AcDbEntity
  8
0
100
AcDbBlockBegin
  2
_D_5
 70
     0
 10
0.0
 20
0.0
 30
0.0
  3
_D_5
  1

  0
SOLID
  5
1DD
330
1DA
100
AcDbEntity
  8
0
  6
Continuous
 62
     7
370
    18
100
AcDbTrace
 10
37.0193847921
 20
176.7411381956
 30
0.0
 11
36.5113847921
 21
173.4391381956
 31
0.0
 12
37.5273847921
 22
173.4391381956
 32
0.0
 13
37.5273847921
 23
173.4391381956
 33
0.0
  0
SOLID
  5
1DE
330
1DA
100
AcDbEntity
  8
0
  6
Continuous
 62
     7
370
    18
100
AcDbTrace
 10
37.0193847921
 20
106.7411381956
 30
0.0
 11
37.5273847921
 21
110.0431381956
 31
0.0
 12
36.5113847921
 22
110.0431381956
 32
0.0
 13
36.5113847921
 23
110.0431381956
 33
0.0
  0
LINE
  5
1DF
330
1DA
100
AcDbEntity
  8
0
  6
Continuous
 62
     7
370
     0
100
AcDbLine
 10
59.2739030639
 20
176.7411381956
 30
0.0
 11
36.0193847921
 21
176.7411381956
 31
0.0
  0
LINE
  5
1E0
330
1DA
100
AcDbEntity
  8
0
  6
Continuous
 62
     7
370
     0
100
AcDbLine
 10
59.2739030639
 20
106.7411381956
 30
0.0
 11
36.0193847921
 21
106.7411381956
 31
0.0
  0
LINE
  5
1E1
330
1DA
100
AcDbEntity
  8
0
  6
Continuous
 62
     7
370
     0
100
AcDbLine
 10
37.0193847921
 20
176.7411381956
 30
0.0
 11
37.0193847921
 21
106.7411381956
 31
0.0
  0
MTEXT
  5
1E2
330
1DA
100
AcDbEntity
  8
0
  6
Continuous
 62
     7
370
    18
100
AcDbMText
 10
32.2444629229
 20
139.7207606679
 30
0.0
 40
3.7041666667
 41
0.0
 71
     1
 72
     1
  1
70
  7
SLDTEXTSTYLE0
 11
-7.044195017643634E-15
 21
1.0
 31
0.0
 73
     1
 44
1.0
  0
ENDBLK
  5
1DC
330
1DA
100
AcDbEntity
  8
0
100
AcDbBlockEnd
  0
BLOCK
  5
1E5
330
1E4
100
AcDbEntity
  8
0
100
AcDbBlockBegin
  2
_D_6
 70
     0
 10
0.0
 20
0.0
 30
0.0
  3
_D_6
  1

  0
SOLID
  5
1E7
330
1E4
100
AcDbEntity
  8
0
  6
Continuous
 62
     7
370
    18
100
AcDbTrace
 10
56.2739030639
 20
90.7411381956
 30
0.0
 11
59.5759030639
 21
90.2331381956
 31
0.0
 12
59.5759030639
 22
91.2491381956
 32
0.0
 13
59.5759030639
 23
91.2491381956
 33
0.0
  0
SOLID
  5
1E8
330
1E4
100
AcDbEntity
  8
0
  6
Continuous
 62
     7
370
    18
100
AcDbTrace
 10
126.2739030639
 20
90.7411381956
 30
0.0
 11
122.9719030639
 21
91.2491381956
 31
0.0
 12
122.9719030639
 22
90.2331381956
 32
0.0
 13
122.9719030639
 23
90.2331381956
 33
0.0
  0
LINE
  5
1E9
330
1E4
100
AcDbEntity
  8
0
  6
Continuous
 62
     7
370
     0
100
AcDbLine
 10
56.2739030639
 20
109.7411381956
 30
0.0
 11
56.2739030639
 21
89.7411381956
 31
0.0
  0
LINE
  5
1EA
330
1E4
100
AcDbEntity
  8
0
  6
Continuous
 62
     7
370
     0
100
AcDbLine
 10
126.2739030639
 20
109.7411381956
 30
0.0
 11
126.2739030639
 21
89.7411381956
 31
0.0
  0
LINE
  5
1EB
330
1E4
100
AcDbEntity
  8
0
  6
Continuous
 62
     7
370
     0
100
AcDbLine
 10
56.2739030639
 20
90.7411381956
 30
0.0
 11
126.2739030639
 21
90.7411381956
 31
0.0
  0
MTEXT
  5
1EC
330
1E4
100
AcDbEntity
  8
0
  6
Continuous
 62
     7
370
    18
100
AcDbMText
 10
88.5369355412
 20
95.5160600648
 30
0.0
 40
3.7041666667
 41
0.0
 71
     1
 72
     1
  1
70
  7
SLDTEXTSTYLE0
 73
     1
 44
1.0
  0
ENDBLK
  5
1E6
330
1E4
100
AcDbEntity
  8
0
100
AcDbBlockEnd
  0
BLOCK
  5
1EE
330
1ED
100
AcDbEntity
  8
0
100
AcDbBlockBegin
  2
SW_NOTE_0
 70
     0
 10
0.0
 20
0.0
 30
0.0
  3
SW_NOTE_0
  1

  0
LINE
  5
1F0
330
1ED
100
AcDbEntity
  8
0
  6
Continuous
 62
     0
370
     0
100
AcDbLine
 10
0.0
 20
0.0
 30
0.0
 11
21.2328767123
 21
0.0
 31
0.0
  0
LINE
  5
1F1
330
1ED
100
AcDbEntity
  8
0
  6
Continuous
 62
     0
370
     0
100
AcDbLine
 10
21.2328767123
 20
0.0
 30
0.0
 11
0.0
 21
0.0
 31
0.0
  0
LINE
  5
1F2
330
1ED
100
AcDbEntity
  8
0
  6
Continuous
 62
     0
370
     0
100
AcDbLine
 10
0.0
 20
0.0
 30
0.0
 11
21.2328767123
 21
0.0
 31
0.0
  0
LINE
  5
1F3
330
1ED
100
AcDbEntity
  8
0
  6
Continuous
 62
     0
370
     0
100
AcDbLine
 10
21.2328767123
 20
0.0
 30
0.0
 11
0.0
 21
0.0
 31
0.0
  0
LINE
  5
1F4
330
1ED
100
AcDbEntity
  8
0
  6
Continuous
 62
     0
370
     0
100
AcDbLine
 10
0.0
 20
0.0
 30
0.0
 11
21.2328767123
 21
0.0
 31
0.0
  0
LINE
  5
1F5
330
1ED
100
AcDbEntity
  8
0
  6
Continuous
 62
     0
370
     0
100
AcDbLine
 10
21.2328767123
 20
0.0
 30
0.0
 11
0.0
 21
0.0
 31
0.0
  0
MTEXT
  5
1F6
330
1ED
100
AcDbEntity
  8
0
  6
Continuous
 62
     0
370
     0
100
AcDbMText
 10
0.0970763757
 20
4.4498527293
 30
0.0
 40
3.7041666667
 41
0.0
 71
     1
 72
     1
  1
4-\U+00D83.4×7
  7
SLDTEXTSTYLE0
 73
     1
 44
1.0
  0
ENDBLK
  5
1EF
330
1ED
100
AcDbEntity
  8
0
100
AcDbBlockEnd
  0
BLOCK
  5
226
330
225
100
AcDbEntity
  8
0
100
AcDbBlockBegin
  2
_D_7
 70
     0
 10
0.0
 20
0.0
 30
0.0
  3
_D_7
  1

  0
SOLID
  5
228
330
225
100
AcDbEntity
  8
0
  6
Continuous
 62
     7
370
    18
100
AcDbTrace
 10
197.093805232
 20
99.5939049856
 30
0.0
 11
200.395805232
 21
99.0859049856
 31
0.0
 12
200.395805232
 22
100.1019049856
 32
0.0
 13
200.395805232
 23
100.1019049856
 33
0.0
  0
SOLID
  5
229
330
225
100
AcDbEntity
  8
0
  6
Continuous
 62
     7
370
    18
100
AcDbTrace
 10
230.093805232
 20
99.5939049856
 30
0.0
 11
226.791805232
 21
100.1019049856
 31
0.0
 12
226.791805232
 22
99.0859049856
 32
0.0
 13
226.791805232
 23
99.0859049856
 33
0.0
  0
LINE
  5
22A
330
225
100
AcDbEntity
  8
0
  6
Continuous
 62
     7
370
     0
100
AcDbLine
 10
197.093805232
 20
74.5939049856
 30
0.0
 11
197.093805232
 21
100.5939049856
 31
0.0
  0
LINE
  5
22B
330
225
100
AcDbEntity
  8
0
  6
Continuous
 62
     7
370
     0
100
AcDbLine
 10
230.093805232
 20
74.5939049856
 30
0.0
 11
230.093805232
 21
100.5939049856
 31
0.0
  0
LINE
  5
22C
330
225
100
AcDbEntity
  8
0
  6
Continuous
 62
     7
370
     0
100
AcDbLine
 10
197.093805232
 20
99.5939049856
 30
0.0
 11
230.093805232
 21
99.5939049856
 31
0.0
  0
MTEXT
  5
22D
330
225
100
AcDbEntity
  8
0
  6
Continuous
 62
     7
370
    18
100
AcDbMText
 10
210.8568377093
 20
104.3688268547
 30
0.0
 40
3.7041666667
 41
0.0
 71
     1
 72
     1
  1
33
  7
SLDTEXTSTYLE0
 73
     1
 44
1.0
  0
ENDBLK
  5
227
330
225
100
AcDbEntity
  8
0
100
AcDbBlockEnd
  0
BLOCK
  5
231
330
230
100
AcDbEntity
  8
0
100
AcDbBlockBegin
  2
_D_8
 70
     0
 10
0.0
 20
0.0
 30
0.0
  3
_D_8
  1

  0
SOLID
  5
233
330
230
100
AcDbEntity
  8
0
  6
Continuous
 62
     7
370
    18
100
AcDbTrace
 10
197.6297036168
 20
75.5939049856
 30
0.0
 11
195.0240877335
 21
77.6848458907
 31
0.0
 12
194.5160877335
 22
76.8049640805
 32
0.0
 13
194.5160877335
 23
76.8049640805
 33
0.0
  0
LINE
  5
234
330
230
100
AcDbEntity
  8
0
  6
Continuous
 62
     7
370
     0
100
AcDbLine
 10
197.6297036168
 20
75.5939049856
 30
0.0
 11
187.0665543641
 21
81.6925420501
 31
0.0
  0
MTEXT
  5
235
330
230
100
AcDbEntity
  8
0
  6
Continuous
 62
     7
370
    18
100
AcDbMText
 10
189.4209080737
 20
85.7704022941
 30
0.0
 40
3.7041666667
 41
0.0
 71
     1
 72
     1
  1
R4
  7
SLDTEXTSTYLE0
 11
0.8660254037844385
 21
-0.5000000000000002
 31
0.0
 73
     1
 44
1.0
  0
ENDBLK
  5
232
330
230
100
AcDbEntity
  8
0
100
AcDbBlockEnd
  0
BLOCK
  5
239
330
238
100
AcDbEntity
  8
0
100
AcDbBlockBegin
  2
_D_9
 70
     0
 10
0.0
 20
0.0
 30
0.0
  3
_D_9
  1

  0
SOLID
  5
23B
330
238
100
AcDbEntity
  8
0
  6
Continuous
 62
     7
370
    18
100
AcDbTrace
 10
220.993805232
 20
82.9003966902
 30
0.0
 11
217.691805232
 21
83.4083966902
 31
0.0
 12
217.691805232
 22
82.3923966902
 32
0.0
 13
217.691805232
 23
82.3923966902
 33
0.0
  0
SOLID
  5
23C
330
238
100
AcDbEntity
  8
0
  6
Continuous
 62
     7
370
    18
100
AcDbTrace
 10
224.193805232
 20
82.9003966902
 30
0.0
 11
227.495805232
 21
82.3923966902
 31
0.0
 12
227.495805232
 22
83.4083966902
 32
0.0
 13
227.495805232
 23
83.4083966902
 33
0.0
  0
LINE
  5
23D
330
238
100
AcDbEntity
  8
0
  6
Continuous
 62
     7
370
     0
100
AcDbLine
 10
220.993805232
 20
77.5939049856
 30
0.0
 11
220.993805232
 21
83.9003966902
 31
0.0
  0
LINE
  5
23E
330
238
100
AcDbEntity
  8
0
  6
Continuous
 62
     7
370
     0
100
AcDbLine
 10
224.193805232
 20
77.5939049856
 30
0.0
 11
224.193805232
 21
83.9003966902
 31
0.0
  0
LINE
  5
23F
330
238
100
AcDbEntity
  8
0
  6
Continuous
 62
     7
370
     0
100
AcDbLine
 10
220.993805232
 20
82.9003966902
 30
0.0
 11
213.8952403569
 21
82.9003966902
 31
0.0
  0
LINE
  5
240
330
238
100
AcDbEntity
  8
0
  6
Continuous
 62
     7
370
     0
100
AcDbLine
 10
220.993805232
 20
82.9003966902
 30
0.0
 11
224.193805232
 21
82.9003966902
 31
0.0
  0
LINE
  5
241
330
238
100
AcDbEntity
  8
0
  6
Continuous
 62
     7
370
     0
100
AcDbLine
 10
224.193805232
 20
82.9003966902
 30
0.0
 11
230.543805232
 21
82.9003966902
 31
0.0
  0
MTEXT
  5
242
330
238
100
AcDbEntity
  8
0
  6
Continuous
 62
     7
370
    18
100
AcDbMText
 10
213.8952403569
 20
87.6753185594
 30
0.0
 40
3.7041666667
 41
0.0
 71
     1
 72
     1
  1
3.2
  7
SLDTEXTSTYLE0
 73
     1
 44
1.0
  0
ENDBLK
  5
23A
330
238
100
AcDbEntity
  8
0
100
AcDbBlockEnd
  0
BLOCK
  5
245
330
244
100
AcDbEntity
  8
0
100
AcDbBlockBegin
  2
_D_10
 70
     0
 10
0.0
 20
0.0
 30
0.0
  3
_D_10
  1

  0
SOLID
  5
247
330
244
100
AcDbEntity
  8
0
  6
Continuous
 62
     7
370
    18
100
AcDbTrace
 10
206.3277798282
 20
77.0939049856
 30
0.0
 11
203.7221639449
 21
79.1848458907
 31
0.0
 12
203.2141639449
 22
78.3049640805
 32
0.0
 13
203.2141639449
 23
78.3049640805
 33
0.0
  0
LINE
  5
248
330
244
100
AcDbEntity
  8
0
  6
Continuous
 62
     7
370
     0
100
AcDbLine
 10
206.3277798282
 20
77.0939049856
 30
0.0
 11
197.2629539972
 21
82.3274846193
 31
0.0
  0
MTEXT
  5
249
330
244
100
AcDbEntity
  8
0
  6
Continuous
 62
     7
370
    18
100
AcDbMText
 10
199.5782057471
 20
86.3376182826
 30
0.0
 40
3.7041666667
 41
0.0
 71
     1
 72
     1
  1
R1
  7
SLDTEXTSTYLE0
 11
0.8660254037844383
 21
-0.5000000000000007
 31
0.0
 73
     1
 44
1.0
  0
ENDBLK
  5
246
330
244
100
AcDbEntity
  8
0
100
AcDbBlockEnd
  0
BLOCK
  5
24C
330
24B
100
AcDbEntity
  8
0
100
AcDbBlockBegin
  2
_D_11
 70
     0
 10
0.0
 20
0.0
 30
0.0
  3
_D_11
  1

  0
SOLID
  5
24E
330
24B
100
AcDbEntity
  8
0
  6
Continuous
 62
     7
370
    18
100
AcDbTrace
 10
204.593805232
 20
90.8333193284
 30
0.0
 11
207.895805232
 21
90.3253193284
 31
0.0
 12
207.895805232
 22
91.3413193284
 32
0.0
 13
207.895805232
 23
91.3413193284
 33
0.0
  0
SOLID
  5
24F
330
24B
100
AcDbEntity
  8
0
  6
Continuous
 62
     7
370
    18
100
AcDbTrace
 10
222.593805232
 20
90.8333193284
 30
0.0
 11
219.291805232
 21
91.3413193284
 31
0.0
 12
219.291805232
 22
90.3253193284
 32
0.0
 13
219.291805232
 23
90.3253193284
 33
0.0
  0
LINE
  5
250
330
24B
100
AcDbEntity
  8
0
  6
Continuous
 62
     7
370
     0
100
AcDbLine
 10
204.593805232
 20
71.3939049856
 30
0.0
 11
204.593805232
 21
91.8333193284
 31
0.0
  0
LINE
  5
251
330
24B
100
AcDbEntity
  8
0
  6
Continuous
 62
     7
370
     0
100
AcDbLine
 10
222.593805232
 20
71.3939049856
 30
0.0
 11
222.593805232
 21
91.8333193284
 31
0.0
  0
LINE
  5
252
330
24B
100
AcDbEntity
  8
0
  6
Continuous
 62
     7
370
     0
100
AcDbLine
 10
204.593805232
 20
90.8333193284
 30
0.0
 11
222.593805232
 21
90.8333193284
 31
0.0
  0
MTEXT
  5
253
330
24B
100
AcDbEntity
  8
0
  6
Continuous
 62
     7
370
    18
100
AcDbMText
 10
210.8568377093
 20
95.6082411975
 30
0.0
 40
3.7041666667
 41
0.0
 71
     1
 72
     1
  1
18
  7
SLDTEXTSTYLE0
 73
     1
 44
1.0
  0
ENDBLK
  5
24D
330
24B
100
AcDbEntity
  8
0
100
AcDbBlockEnd
  0
BLOCK
  5
257
330
256
100
AcDbEntity
  8
0
100
AcDbBlockBegin
  2
_D_12
 70
     0
 10
0.0
 20
0.0
 30
0.0
  3
_D_12
  1

  0
SOLID
  5
259
330
256
100
AcDbEntity
  8
0
  6
Continuous
 62
     7
370
    18
100
AcDbTrace
 10
171.5569637889
 20
66.2939049856
 30
0.0
 11
172.0649637889
 21
69.5959049856
 31
0.0
 12
171.0489637889
 22
69.5959049856
 32
0.0
 13
171.0489637889
 23
69.5959049856
 33
0.0
  0
SOLID
  5
25A
330
256
100
AcDbEntity
  8
0
  6
Continuous
 62
     7
370
    18
100
AcDbTrace
 10
171.5569637889
 20
53.5939049856
 30
0.0
 11
171.0489637889
 21
50.2919049856
 31
0.0
 12
172.0649637889
 22
50.2919049856
 32
0.0
 13
172.0649637889
 23
50.2919049856
 33
0.0
  0
LINE
  5
25B
330
256
100
AcDbEntity
  8
0
  6
Continuous
 62
     7
370
     0
100
AcDbLine
 10
199.493805232
 20
66.2939049856
 30
0.0
 11
170.5569637889
 21
66.2939049856
 31
0.0
  0
LINE
  5
25C
330
256
100
AcDbEntity
  8
0
  6
Continuous
 62
     7
370
     0
100
AcDbLine
 10
177.593805232
 20
53.5939049856
 30
0.0
 11
170.5569637889
 21
53.5939049856
 31
0.0
  0
LINE
  5
25D
330
256
100
AcDbEntity
  8
0
  6
Continuous
 62
     7
370
     0
100
AcDbLine
 10
171.5569637889
 20
66.2939049856
 30
0.0
 11
171.5569637889
 21
72.6439049856
 31
0.0
  0
LINE
  5
25E
330
256
100
AcDbEntity
  8
0
  6
Continuous
 62
     7
370
     0
100
AcDbLine
 10
171.5569637889
 20
66.2939049856
 30
0.0
 11
171.5569637889
 21
53.5939049856
 31
0.0
  0
LINE
  5
25F
330
256
100
AcDbEntity
  8
0
  6
Continuous
 62
     7
370
     0
100
AcDbLine
 10
171.5569637889
 20
53.5939049856
 30
0.0
 11
171.5569637889
 21
47.2439049856
 31
0.0
  0
MTEXT
  5
260
330
256
100
AcDbEntity
  8
0
  6
Continuous
 62
     7
370
    18
100
AcDbMText
 10
166.7820419197
 20
55.155926735
 30
0.0
 40
3.7041666667
 41
0.0
 71
     1
 72
     1
  1
12.7
  7
SLDTEXTSTYLE0
 11
-7.044195017643634E-15
 21
1.0
 31
0.0
 73
     1
 44
1.0
  0
ENDBLK
  5
258
330
256
100
AcDbEntity
  8
0
100
AcDbBlockEnd
  0
BLOCK
  5
263
330
262
100
AcDbEntity
  8
0
100
AcDbBlockBegin
  2
_D_13
 70
     0
 10
0.0
 20
0.0
 30
0.0
  3
_D_13
  1

  0
SOLID
  5
265
330
262
100
AcDbEntity
  8
0
  6
Continuous
 62
     7
370
    18
100
AcDbTrace
 10
182.700374314
 20
71.2939049856
 30
0.0
 11
183.208374314
 21
74.5959049856
 31
0.0
 12
182.192374314
 22
74.5959049856
 32
0.0
 13
182.192374314
 23
74.5959049856
 33
0.0
  0
SOLID
  5
266
330
262
100
AcDbEntity
  8
0
  6
Continuous
 62
     7
370
    18
100
AcDbTrace
 10
182.700374314
 20
66.2939049856
 30
0.0
 11
182.192374314
 21
62.9919049856
 31
0.0
 12
183.208374314
 22
62.9919049856
 32
0.0
 13
183.208374314
 23
62.9919049856
 33
0.0
  0
LINE
  5
267
330
262
100
AcDbEntity
  8
0
  6
Continuous
 62
     7
370
     0
100
AcDbLine
 10
203.593805232
 20
71.2939049856
 30
0.0
 11
181.700374314
 21
71.2939049856
 31
0.0
  0
LINE
  5
268
330
262
100
AcDbEntity
  8
0
  6
Continuous
 62
     7
370
     0
100
AcDbLine
 10
199.493805232
 20
66.2939049856
 30
0.0
 11
181.700374314
 21
66.2939049856
 31
0.0
  0
LINE
  5
269
330
262
100
AcDbEntity
  8
0
  6
Continuous
 62
     7
370
     0
100
AcDbLine
 10
182.700374314
 20
71.2939049856
 30
0.0
 11
182.700374314
 21
77.6439049856
 31
0.0
  0
LINE
  5
26A
330
262
100
AcDbEntity
  8
0
  6
Continuous
 62
     7
370
     0
100
AcDbLine
 10
182.700374314
 20
71.2939049856
 30
0.0
 11
182.700374314
 21
66.2939049856
 31
0.0
  0
LINE
  5
26B
330
262
100
AcDbEntity
  8
0
  6
Continuous
 62
     7
370
     0
100
AcDbLine
 10
182.700374314
 20
66.2939049856
 30
0.0
 11
182.700374314
 21
59.9439049856
 31
0.0
  0
MTEXT
  5
26C
330
262
100
AcDbEntity
  8
0
  6
Continuous
 62
     7
370
    18
100
AcDbMText
 10
177.9254524449
 20
67.4254212242
 30
0.0
 40
3.7041666667
 41
0.0
 71
     1
 72
     1
  1
5
  7
SLDTEXTSTYLE0
 11
-7.044195017643634E-15
 21
1.0
 31
0.0
 73
     1
 44
1.0
  0
ENDBLK
  5
264
330
262
100
AcDbEntity
  8
0
100
AcDbBlockEnd
  0
BLOCK
  5
26E
330
26D
100
AcDbEntity
  8
0
100
AcDbBlockBegin
  2
SW_NOTE_0_1
 70
     0
 10
0.0
 20
0.0
 30
0.0
  3
SW_NOTE_0_1
  1

  0
LINE
  5
270
330
26D
100
AcDbEntity
  8
0
  6
Continuous
 62
     0
370
     0
100
AcDbLine
 10
0.0
 20
0.0
 30
0.0
 11
15.4794520548
 21
0.0
 31
0.0
  0
LINE
  5
271
330
26D
100
AcDbEntity
  8
0
  6
Continuous
 62
     0
370
     0
100
AcDbLine
 10
15.4794520548
 20
0.0
 30
0.0
 11
0.0
 21
0.0
 31
0.0
  0
LINE
  5
272
330
26D
100
AcDbEntity
  8
0
  6
Continuous
 62
     0
370
     0
100
AcDbLine
 10
0.0
 20
0.0
 30
0.0
 11
15.4794520548
 21
0.0
 31
0.0
  0
LINE
  5
273
330
26D
100
AcDbEntity
  8
0
  6
Continuous
 62
     0
370
     0
100
AcDbLine
 10
15.4794520548
 20
0.0
 30
0.0
 11
0.0
 21
0.0
 31
0.0
  0
LINE
  5
274
330
26D
100
AcDbEntity
  8
0
  6
Continuous
 62
     0
370
     0
100
AcDbLine
 10
0.0
 20
0.0
 30
0.0
 11
15.4794520548
 21
0.0
 31
0.0
  0
LINE
  5
275
330
26D
100
AcDbEntity
  8
0
  6
Continuous
 62
     0
370
     0
100
AcDbLine
 10
15.4794520548
 20
0.0
 30
0.0
 11
0.0
 21
0.0
 31
0.0
  0
MTEXT
  5
276
330
26D
100
AcDbEntity
  8
0
  6
Continuous
 62
     0
370
     0
100
AcDbMText
 10
0.0800181748
 20
4.3925642649
 30
0.0
 40
3.7041666667
 41
0.0
 71
     1
 72
     1
  1
4-\U+00D83.2
  7
SLDTEXTSTYLE0
 73
     1
 44
1.0
  0
ENDBLK
  5
26F
330
26D
100
AcDbEntity
  8
0
100
AcDbBlockEnd
  0
BLOCK
  5
27A
330
279
100
AcDbEntity
  8
0
100
AcDbBlockBegin
  2
SW_CENTERMARKSYMBOL_0
 70
     0
 10
0.0
 20
0.0
 30
0.0
  3
SW_CENTERMARKSYMBOL_0
  1

  0
LINE
  5
27C
330
279
100
AcDbEntity
  8
0
  6
Continuous
 62
     0
370
    18
100
AcDbLine
 10
0.0
 20
0.0
 30
0.0
 11
0.0
 21
2.5
 31
0.0
  0
LINE
  5
27D
330
279
100
AcDbEntity
  8
0
  6
Continuous
 62
     0
370
    18
100
AcDbLine
 10
0.0
 20
0.0
 30
0.0
 11
-2.5
 21
0.0
 31
0.0
  0
LINE
  5
27E
330
279
100
AcDbEntity
  8
0
  6
Continuous
 62
     0
370
    18
100
AcDbLine
 10
0.0
 20
0.0
 30
0.0
 11
0.0
 21
-2.5
 31
0.0
  0
LINE
  5
27F
330
279
100
AcDbEntity
  8
0
  6
Continuous
 62
     0
370
    18
100
AcDbLine
 10
0.0
 20
0.0
 30
0.0
 11
2.5
 21
0.0
 31
0.0
  0
LINE
  5
280
330
279
100
AcDbEntity
  8
0
  6
Continuous
 62
     0
370
    18
100
AcDbLine
 10
0.0
 20
2.5
 30
0.0
 11
0.0
 21
4.1
 31
0.0
  0
LINE
  5
281
330
279
100
AcDbEntity
  8
0
  6
Continuous
 62
     0
370
    18
100
AcDbLine
 10
-2.5
 20
0.0
 30
0.0
 11
-4.1
 21
0.0
 31
0.0
  0
LINE
  5
282
330
279
100
AcDbEntity
  8
0
  6
Continuous
 62
     0
370
    18
100
AcDbLine
 10
0.0
 20
-2.5
 30
0.0
 11
0.0
 21
-4.1
 31
0.0
  0
LINE
  5
283
330
279
100
AcDbEntity
  8
0
  6
Continuous
 62
     0
370
    18
100
AcDbLine
 10
2.5
 20
0.0
 30
0.0
 11
4.1
 21
0.0
 31
0.0
  0
ENDBLK
  5
27B
330
279
100
AcDbEntity
  8
0
100
AcDbBlockEnd
  0
BLOCK
  5
286
330
285
100
AcDbEntity
  8
0
100
AcDbBlockBegin
  2
SW_CENTERMARKSYMBOL_1
 70
     0
 10
0.0
 20
0.0
 30
0.0
  3
SW_CENTERMARKSYMBOL_1
  1

  0
LINE
  5
288
330
285
100
AcDbEntity
  8
0
  6
Continuous
 62
     0
370
    18
100
AcDbLine
 10
0.0
 20
0.0
 30
0.0
 11
0.0
 21
2.5
 31
0.0
  0
LINE
  5
289
330
285
100
AcDbEntity
  8
0
  6
Continuous
 62
     0
370
    18
100
AcDbLine
 10
0.0
 20
0.0
 30
0.0
 11
-2.5
 21
0.0
 31
0.0
  0
LINE
  5
28A
330
285
100
AcDbEntity
  8
0
  6
Continuous
 62
     0
370
    18
100
AcDbLine
 10
0.0
 20
0.0
 30
0.0
 11
0.0
 21
-2.5
 31
0.0
  0
LINE
  5
28B
330
285
100
AcDbEntity
  8
0
  6
Continuous
 62
     0
370
    18
100
AcDbLine
 10
0.0
 20
0.0
 30
0.0
 11
2.5
 21
0.0
 31
0.0
  0
LINE
  5
28C
330
285
100
AcDbEntity
  8
0
  6
Continuous
 62
     0
370
    18
100
AcDbLine
 10
0.0
 20
2.5
 30
0.0
 11
0.0
 21
4.1
 31
0.0
  0
LINE
  5
28D
330
285
100
AcDbEntity
  8
0
  6
Continuous
 62
     0
370
    18
100
AcDbLine
 10
-2.5
 20
0.0
 30
0.0
 11
-4.1
 21
0.0
 31
0.0
  0
LINE
  5
28E
330
285
100
AcDbEntity
  8
0
  6
Continuous
 62
     0
370
    18
100
AcDbLine
 10
0.0
 20
-2.5
 30
0.0
 11
0.0
 21
-4.1
 31
0.0
  0
LINE
  5
28F
330
285
100
AcDbEntity
  8
0
  6
Continuous
 62
     0
370
    18
100
AcDbLine
 10
2.5
 20
0.0
 30
0.0
 11
4.1
 21
0.0
 31
0.0
  0
ENDBLK
  5
287
330
285
100
AcDbEntity
  8
0
100
AcDbBlockEnd
  0
ENDSEC
  0
SECTION
  2
ENTITIES
  0
LINE
  5
DA
330
1F
100
AcDbEntity
  8
0
  6
Continuous
 62
     7
370
    18
100
AcDbLine
 10
159.432744824
 20
33.8601915079
 30
0.0
 11
287.0
 21
33.8601915079
 31
0.0
  0
LINE
  5
DB
330
1F
100
AcDbEntity
  8
0
  6
Continuous
 62
     7
370
    18
100
AcDbLine
 10
208.1941594269
 20
44.6102865927
 30
0.0
 11
208.1941594269
 21
10.0
 31
0.0
  0
LINE
  5
DC
330
1F
100
AcDbEntity
  8
0
  6
Continuous
 62
     7
370
    18
100
AcDbLine
 10
159.432744824
 20
44.6102865927
 30
0.0
 11
159.432744824
 21
10.0045890898
 31
0.0
  0
LINE
  5
DD
330
1F
100
AcDbEntity
  8
0
  6
Continuous
 62
     7
370
    18
100
AcDbLine
 10
98.4968520338
 20
9.9970004542
 30
0.0
 11
98.4968520338
 21
4.9970004542
 31
0.0
  0
LINE
  5
DE
330
1F
100
AcDbEntity
  8
0
  6
Continuous
 62
     7
370
    18
100
AcDbLine
 10
223.216372412
 20
44.6102865927
 30
0.0
 11
223.216372412
 21
33.8601915079
 31
0.0
  0
LINE
  5
DF
330
1F
100
AcDbEntity
  8
0
  6
Continuous
 62
     7
370
    18
100
AcDbLine
 10
183.3290236179
 20
33.7912495328
 30
0.0
 11
183.3290236179
 21
10.0045890898
 31
0.0
  0
LINE
  5
E0
330
1F
100
AcDbEntity
  8
0
  6
Continuous
 62
     7
370
    18
100
AcDbLine
 10
237.328937002
 20
44.6102865927
 30
0.0
 11
237.328937002
 21
33.8601915079
 31
0.0
  0
LINE
  5
E1
330
1F
100
AcDbEntity
  8
0
  6
Continuous
 62
     7
370
    18
100
AcDbLine
 10
148.5
 20
15.0
 30
0.0
 11
148.5
 21
5.0
 31
0.0
  0
LINE
  5
E2
330
1F
100
AcDbEntity
  8
0
  6
Continuous
 62
     7
370
    18
100
AcDbLine
 10
107.0
 20
10.0
 30
0.0
 11
287.0
 21
10.0
 31
0.0
  0
LINE
  5
E3
330
1F
100
AcDbEntity
  8
0
  6
Continuous
 62
     7
370
    18
100
AcDbLine
 10
287.0
 20
100.0
 30
0.0
 11
287.0
 21
10.0
 31
0.0
  0
LINE
  5
E4
330
1F
100
AcDbEntity
  8
0
  6
Continuous
 62
     7
370
    18
100
AcDbLine
 10
271.2287855961
 20
22.009921684
 30
0.0
 11
271.2287855961
 21
9.9784208993
 31
0.0
  0
LINE
  5
E5
330
1F
100
AcDbEntity
  8
0
  6
Continuous
 62
     7
370
    18
100
AcDbLine
 10
159.432744824
 20
44.6102865927
 30
0.0
 11
287.0
 21
44.6102865927
 31
0.0
  0
LINE
  5
E6
330
1F
100
AcDbEntity
  8
0
  6
Continuous
 62
     7
370
    18
100
AcDbLine
 10
208.1941594269
 20
22.009921684
 30
0.0
 11
287.0015319248
 21
22.009921684
 31
0.0
  0
LINE
  5
E7
330
1F
100
AcDbEntity
  8
0
  6
Continuous
 62
     7
370
    18
100
AcDbLine
 10
292.0014123446
 20
55.0
 30
0.0
 11
287.0014123446
 21
55.0
 31
0.0
  0
LINE
  5
E8
330
1F
100
AcDbEntity
  8
0
  6
Continuous
 62
     7
370
    18
100
AcDbLine
 10
198.4968520338
 20
9.9970004542
 30
0.0
 11
198.4968520338
 21
4.9970004542
 31
0.0
  0
LINE
  5
E9
330
1F
100
AcDbEntity
  8
0
  6
Continuous
 62
     7
370
    18
100
AcDbLine
 10
248.4968520338
 20
4.9970004542
 30
0.0
 11
248.4968520338
 21
9.9970004542
 31
0.0
  0
LINE
  5
EA
330
1F
100
AcDbEntity
  8
0
  6
Continuous
 62
     7
370
    18
100
AcDbLine
 10
287.0
 20
200.0
 30
0.0
 11
10.0
 21
200.0
 31
0.0
  0
LINE
  5
EB
330
1F
100
AcDbEntity
  8
0
  6
Continuous
 62
     7
370
    18
100
AcDbLine
 10
292.0
 20
205.0
 30
0.0
 11
5.0
 21
205.0
 31
0.0
  0
LINE
  5
EC
330
1F
100
AcDbEntity
  8
0
  6
Continuous
 62
     7
370
    18
100
AcDbLine
 10
10.0
 20
200.0
 30
0.0
 11
10.0
 21
10.0
 31
0.0
  0
LINE
  5
ED
330
1F
100
AcDbEntity
  8
0
  6
Continuous
 62
     7
370
    18
100
AcDbLine
 10
5.0
 20
205.0
 30
0.0
 11
5.0
 21
5.0
 31
0.0
  0
LINE
  5
EE
330
1F
100
AcDbEntity
  8
0
  6
Continuous
 62
     7
370
    18
100
AcDbLine
 10
10.0
 20
55.0
 30
0.0
 11
5.0
 21
55.0
 31
0.0
  0
LINE
  5
EF
330
1F
100
AcDbEntity
  8
0
  6
Continuous
 62
     7
370
    18
100
AcDbLine
 10
5.0
 20
105.0
 30
0.0
 11
15.0
 21
105.0
 31
0.0
  0
LINE
  5
F0
330
1F
100
AcDbEntity
  8
0
  6
Continuous
 62
     7
370
    18
100
AcDbLine
 10
5.0
 20
5.0
 30
0.0
 11
292.0
 21
5.0
 31
0.0
  0
LINE
  5
F1
330
1F
100
AcDbEntity
  8
0
  6
Continuous
 62
     7
370
    18
100
AcDbLine
 10
10.0
 20
10.0
 30
0.0
 11
287.0
 21
10.0
 31
0.0
  0
LINE
  5
F2
330
1F
100
AcDbEntity
  8
0
  6
Continuous
 62
     7
370
    18
100
AcDbLine
 10
48.5
 20
5.0
 30
0.0
 11
48.5
 21
10.0
 31
0.0
  0
LINE
  5
F3
330
1F
100
AcDbEntity
  8
0
  6
Continuous
 62
     7
370
    18
100
AcDbLine
 10
10.0
 20
155.0
 30
0.0
 11
5.0
 21
155.0
 31
0.0
  0
LINE
  5
F4
330
1F
100
AcDbEntity
  8
0
  6
Continuous
 62
     7
370
    18
100
AcDbLine
 10
48.5
 20
200.0
 30
0.0
 11
48.5
 21
205.0
 31
0.0
  0
LINE
  5
F5
330
1F
100
AcDbEntity
  8
0
  6
Continuous
 62
     7
370
    18
100
AcDbLine
 10
98.5
 20
205.0
 30
0.0
 11
98.5
 21
200.0
 31
0.0
  0
LINE
  5
F6
330
1F
100
AcDbEntity
  8
0
  6
Continuous
 62
     7
370
    18
100
AcDbLine
 10
148.5
 20
205.0
 30
0.0
 11
148.5
 21
195.0
 31
0.0
  0
LINE
  5
F7
330
1F
100
AcDbEntity
  8
0
  6
Continuous
 62
     7
370
    18
100
AcDbLine
 10
287.0
 20
10.0
 30
0.0
 11
287.0
 21
200.0
 31
0.0
  0
LINE
  5
F8
330
1F
100
AcDbEntity
  8
0
  6
Continuous
 62
     7
370
    18
100
AcDbLine
 10
292.0
 20
5.0
 30
0.0
 11
292.0
 21
205.0
 31
0.0
  0
LINE
  5
F9
330
1F
100
AcDbEntity
  8
0
  6
Continuous
 62
     7
370
    18
100
AcDbLine
 10
292.0
 20
105.0
 30
0.0
 11
282.0
 21
105.0
 31
0.0
  0
LINE
  5
FA
330
1F
100
AcDbEntity
  8
0
  6
Continuous
 62
     7
370
    18
100
AcDbLine
 10
198.5
 20
205.0
 30
0.0
 11
198.5
 21
200.0
 31
0.0
  0
LINE
  5
FB
330
1F
100
AcDbEntity
  8
0
  6
Continuous
 62
     7
370
    18
100
AcDbLine
 10
248.5
 20
200.0
 30
0.0
 11
248.5
 21
205.0
 31
0.0
  0
LINE
  5
FC
330
1F
100
AcDbEntity
  8
0
  6
Continuous
 62
     7
370
    18
100
AcDbLine
 10
287.0
 20
155.0
 30
0.0
 11
292.0
 21
155.0
 31
0.0
  0
INSERT
  5
FD
330
1F
100
AcDbEntity
  8
0
  6
Continuous
 62
     7
100
AcDbBlockReference
  2
HDLOGOWK
 10
161.6454446327
 20
35.330954899
 30
0.0
 41
0.135
 42
0.135
 43
0.135
  0
MTEXT
  5
FF
330
1F
100
AcDbEntity
  8
0
  6
Continuous
 62
     7
370
     0
100
AcDbMText
 10
6.6666666667
 20
131.1680164036
 30
0.0
 40
1.8520833333
 41
0.0
 71
     1
 72
     1
  1
B
  7
SLDTEXTSTYLE0
 73
     1
 44
1.0
  0
MTEXT
  5
100
330
1F
100
AcDbEntity
  8
0
  6
Continuous
 62
     7
370
     0
100
AcDbMText
 10
6.6666666667
 20
81.1680164036
 30
0.0
 40
1.8520833333
 41
0.0
 71
     1
 72
     1
  1
C
  7
SLDTEXTSTYLE0
 73
     1
 44
1.0
  0
MTEXT
  5
101
330
1F
100
AcDbEntity
  8
0
  6
Continuous
 62
     7
370
     0
100
AcDbMText
 10
6.6666666667
 20
31.1680164036
 30
0.0
 40
1.8520833333
 41
0.0
 71
     1
 72
     1
  1
D
  7
SLDTEXTSTYLE0
 73
     1
 44
1.0
  0
MTEXT
  5
102
330
1F
100
AcDbEntity
  8
0
  6
Continuous
 62
     7
370
     0
100
AcDbMText
 10
23.0833373333
 20
8.6680164036
 30
0.0
 40
1.8520833333
 41
0.0
 71
     1
 72
     1
  1
1
  7
SLDTEXTSTYLE0
 73
     1
 44
1.0
  0
MTEXT
  5
103
330
1F
100
AcDbEntity
  8
0
  6
Continuous
 62
     7
370
     0
100
AcDbMText
 10
72.6666706667
 20
8.6680164036
 30
0.0
 40
1.8520833333
 41
0.0
 71
     1
 72
     1
  1
2
  7
SLDTEXTSTYLE0
 73
     1
 44
1.0
  0
MTEXT
  5
104
330
1F
100
AcDbEntity
  8
0
  6
Continuous
 62
     7
370
     0
100
AcDbMText
 10
6.6666666667
 20
181.1680164036
 30
0.0
 40
1.8520833333
 41
0.0
 71
     1
 72
     1
  1
A
  7
SLDTEXTSTYLE0
 73
     1
 44
1.0
  0
MTEXT
  5
105
330
1F
100
AcDbEntity
  8
0
  6
Continuous
 62
     7
370
     0
100
AcDbMText
 10
122.6666706667
 20
203.6680164036
 30
0.0
 40
1.8520833333
 41
0.0
 71
     1
 72
     1
  1
3
  7
SLDTEXTSTYLE0
 73
     1
 44
1.0
  0
MTEXT
  5
106
330
1F
100
AcDbEntity
  8
0
  6
Continuous
 62
     7
370
     0
100
AcDbMText
 10
72.6666706667
 20
203.6680164036
 30
0.0
 40
1.8520833333
 41
0.0
 71
     1
 72
     1
  1
2
  7
SLDTEXTSTYLE0
 73
     1
 44
1.0
  0
MTEXT
  5
107
330
1F
100
AcDbEntity
  8
0
  6
Continuous
 62
     7
370
     0
100
AcDbMText
 10
23.0833373333
 20
203.6680164036
 30
0.0
 40
1.8520833333
 41
0.0
 71
     1
 72
     1
  1
1
  7
SLDTEXTSTYLE0
 73
     1
 44
1.0
  0
MTEXT
  5
108
330
1F
100
AcDbEntity
  8
0
  6
Continuous
 62
     7
370
     0
100
AcDbMText
 10
172.6666706667
 20
203.6680164036
 30
0.0
 40
1.8520833333
 41
0.0
 71
     1
 72
     1
  1
4
  7
SLDTEXTSTYLE0
 73
     1
 44
1.0
  0
MTEXT
  5
109
330
1F
100
AcDbEntity
  8
0
  6
Continuous
 62
     7
370
     0
100
AcDbMText
 10
288.6666746667
 20
131.1680164036
 30
0.0
 40
1.8520833333
 41
0.0
 71
     1
 72
     1
  1
B
  7
SLDTEXTSTYLE0
 73
     1
 44
1.0
  0
MTEXT
  5
10A
330
1F
100
AcDbEntity
  8
0
  6
Continuous
 62
     7
370
     0
100
AcDbMText
 10
288.6666746667
 20
181.1680164036
 30
0.0
 40
1.8520833333
 41
0.0
 71
     1
 72
     1
  1
A
  7
SLDTEXTSTYLE0
 73
     1
 44
1.0
  0
MTEXT
  5
10B
330
1F
100
AcDbEntity
  8
0
  6
Continuous
 62
     7
370
     0
100
AcDbMText
 10
222.6666706667
 20
203.6680164036
 30
0.0
 40
1.8520833333
 41
0.0
 71
     1
 72
     1
  1
5
  7
SLDTEXTSTYLE0
 73
     1
 44
1.0
  0
MTEXT
  5
10C
330
1F
100
AcDbEntity
  8
0
  6
Continuous
 62
     7
370
     0
100
AcDbMText
 10
272.6666706667
 20
203.6680164036
 30
0.0
 40
1.8520833333
 41
0.0
 71
     1
 72
     1
  1
6
  7
SLDTEXTSTYLE0
 73
     1
 44
1.0
  0
MTEXT
  5
10D
330
1F
100
AcDbEntity
  8
0
  6
Continuous
 62
     7
370
     0
100
AcDbMText
 10
288.6926520658
 20
82.1496220514
 30
0.0
 40
1.8520833333
 41
0.0
 71
     1
 72
     1
  1
C
  7
SLDTEXTSTYLE0
 73
     1
 44
1.0
  0
MTEXT
  5
10F
330
1F
100
AcDbEntity
  8
0
  6
Continuous
 62
     7
370
     0
100
AcDbMText
 10
286.2541151803
 20
8.5354806404
 30
0.0
 40
2.0
 41
0.0
 71
     3
 72
     1
  1
A4 SHEET 1 OF 1
  7
SLDTEXTSTYLE1
 73
     1
 44
1.0
  0
MTEXT
  5
111
330
1F
100
AcDbEntity
  8
0
  6
Continuous
 62
     7
370
     0
100
AcDbMText
 10
260.6011744794
 20
39.4168219386
 30
0.0
 40
3.7041666667
 41
0.0
 71
     2
 72
     1
  1
Stainless Steel 1.2t
  7
SLDTEXTSTYLE2
 73
     1
 44
1.0
  0
MTEXT
  5
112
330
1F
100
AcDbEntity
  8
0
  6
Continuous
 62
     7
370
     0
100
AcDbMText
 10
237.0802109808
 20
17.0961048509
 30
0.0
 40
4.2333333333
 41
0.0
 71
     2
 72
     1
  1
ACC027-DWG-A
  7
SLDTEXTSTYLE2
 73
     1
 44
1.0
  0
MTEXT
  5
113
330
1F
100
AcDbEntity
  8
0
  6
Continuous
 62
     7
370
     0
100
AcDbMText
 10
272.7885903721
 20
20.5785376173
 30
0.0
 40
2.0
 41
0.0
 71
     1
 72
     1
  1
REV
  7
SLDTEXTSTYLE1
 73
     1
 44
1.0
  0
MTEXT
  5
114
330
1F
100
AcDbEntity
  8
0
  6
Continuous
 62
     7
370
     0
100
AcDbMText
 10
225.9071127439
 20
39.9999799303
 30
0.0
 40
4.2333333333
 41
0.0
 71
     1
 72
     1
  1
mm
  7
SLDTEXTSTYLE2
 73
     1
 44
1.0
  0
MTEXT
  5
115
330
1F
100
AcDbEntity
  8
0
  6
Continuous
 62
     7
370
     0
100
AcDbMText
 10
224.5648923616
 20
43.6415519393
 30
0.0
 40
2.0
 41
0.0
 71
     1
 72
     1
  1
UNIT
  7
SLDTEXTSTYLE1
 73
     1
 44
1.0
  0
MTEXT
  5
116
330
1F
100
AcDbEntity
  8
0
  6
Continuous
 62
     7
370
     0
100
AcDbMText
 10
184.6723541579
 20
32.3731536278
 30
0.0
 40
2.0
 41
0.0
 71
     1
 72
     1
  1
DWG
  7
SLDTEXTSTYLE1
 73
     1
 44
1.0
  0
MTEXT
  5
117
330
1F
100
AcDbEntity
  8
0
  6
Continuous
 62
     7
370
     0
100
AcDbMText
 10
209.5958874861
 20
32.2227354635
 30
0.0
 40
2.0
 41
0.0
 71
     1
 72
     1
  1
TITLE
  7
SLDTEXTSTYLE1
 73
     1
 44
1.0
  0
MTEXT
  5
118
330
1F
100
AcDbEntity
  8
0
  6
Continuous
 62
     7
370
     0
100
AcDbMText
 10
243.6330623975
 20
28.8319790862
 30
0.0
 40
4.2333333333
 41
0.0
 71
     2
 72
     1
  1
ACC027 Outline Drawing
  7
SLDTEXTSTYLE2
 73
     1
 44
1.0
  0
MTEXT
  5
119
330
1F
100
AcDbEntity
  8
0
  6
Continuous
 62
     7
370
     0
100
AcDbMText
 10
279.3485602673
 20
17.0961048509
 30
0.0
 40
4.2333333333
 41
0.0
 71
     2
 72
     1
  1
A
  7
SLDTEXTSTYLE2
 73
     1
 44
1.0
  0
MTEXT
  5
11A
330
1F
100
AcDbEntity
  8
0
  6
Continuous
 62
     7
370
     0
100
AcDbMText
 10
209.7010936351
 20
20.8351972104
 30
0.0
 40
2.0
 41
0.0
 71
     1
 72
     1
  1
DRAWING NO
  7
SLDTEXTSTYLE1
 73
     1
 44
1.0
  0
MTEXT
  5
11B
330
1F
100
AcDbEntity
  8
0
  6
Continuous
 62
     7
370
     0
100
AcDbMText
 10
160.7857382062
 20
32.3731536278
 30
0.0
 40
2.0
 41
0.0
 71
     1
 72
     1
  1
CHK
  7
SLDTEXTSTYLE1
 73
     1
 44
1.0
  0
MTEXT
  5
11C
330
1F
100
AcDbEntity
  8
0
  6
Continuous
 62
     7
370
     0
100
AcDbMText
 10
239.645859176
 20
43.6415519393
 30
0.0
 40
2.0
 41
0.0
 71
     1
 72
     1
  1
MATERIAL
  7
SLDTEXTSTYLE1
 73
     1
 44
1.0
  0
MTEXT
  5
11D
330
1F
100
AcDbEntity
  8
0
  6
Continuous
 62
     7
370
     0
100
AcDbMText
 10
212.2381088667
 20
39.9999801049
 30
0.0
 40
4.2333333333
 41
0.0
 71
     1
 72
     1
  1
1:1
  7
SLDTEXTSTYLE2
 73
     1
 44
1.0
  0
MTEXT
  5
11E
330
1F
100
AcDbEntity
  8
0
  6
Continuous
 62
     7
370
     0
100
AcDbMText
 10
209.5572067527
 20
43.336494269
 30
0.0
 40
2.0
 41
0.0
 71
     1
 72
     1
  1
SCALE
  7
SLDTEXTSTYLE1
 73
     1
 44
1.0
  0
MTEXT
  5
11F
330
1F
100
AcDbEntity
  8
0
  6
Continuous
 62
     7
370
     0
100
AcDbMText
 10
222.6635227005
 20
8.6650168578
 30
0.0
 40
1.8520833333
 41
0.0
 71
     1
 72
     1
  1
5
  7
SLDTEXTSTYLE0
 73
     1
 44
1.0
  0
MTEXT
  5
120
330
1F
100
AcDbEntity
  8
0
  6
Continuous
 62
     7
370
     0
100
AcDbMText
 10
172.6635227005
 20
8.6650168578
 30
0.0
 40
1.8520833333
 41
0.0
 71
     1
 72
     1
  1
4
  7
SLDTEXTSTYLE0
 73
     1
 44
1.0
  0
MTEXT
  5
121
330
1F
100
AcDbEntity
  8
0
  6
Continuous
 62
     7
370
     0
100
AcDbMText
 10
122.6635227005
 20
8.6650168578
 30
0.0
 40
1.8520833333
 41
0.0
 71
     1
 72
     1
  1
3
  7
SLDTEXTSTYLE0
 73
     1
 44
1.0
  0
MTEXT
  5
122
330
1F
100
AcDbEntity
  8
0
  6
Continuous
 62
     7
370
     0
100
AcDbMText
 10
204.5546577931
 20
39.4013560792
 30
0.0
 40
2.1166666667
 41
0.0
 71
     1
 72
     1
  1
\U+00AE
  7
SLDTEXTSTYLE2
 73
     1
 44
1.0
  0
LINE
  5
123
330
1F
100
AcDbEntity
  8
0
  6
Continuous
 62
     7
370
    25
100
AcDbLine
 10
56.2739030639
 20
52.3939049856
 30
0.0
 11
60.2739030639
 21
52.3939049856
 31
0.0
  0
LINE
  5
124
330
1F
100
AcDbEntity
  8
0
  6
Continuous
 62
     7
370
    25
100
AcDbLine
 10
56.2739030639
 20
52.3939049856
 30
0.0
 11
56.2739030639
 21
53.5939049856
 31
0.0
  0
LINE
  5
125
330
1F
100
AcDbEntity
  8
0
  6
Continuous
 62
     7
370
    25
100
AcDbLine
 10
56.2739030639
 20
53.5939049856
 30
0.0
 11
60.2739030639
 21
53.5939049856
 31
0.0
  0
LINE
  5
126
330
1F
100
AcDbEntity
  8
0
  6
Continuous
 62
     7
370
    25
100
AcDbLine
 10
60.2739030639
 20
52.3939049856
 30
0.0
 11
122.2739030639
 21
52.3939049856
 31
0.0
  0
LINE
  5
127
330
1F
100
AcDbEntity
  8
0
  6
Continuous
 62
     7
370
    25
100
AcDbLine
 10
60.2739030639
 20
53.5939049856
 30
0.0
 11
122.2739030639
 21
53.5939049856
 31
0.0
  0
LINE
  5
128
330
1F
100
AcDbEntity
  8
0
  6
Continuous
 62
     7
370
    25
100
AcDbLine
 10
126.2739030639
 20
52.3939049856
 30
0.0
 11
126.2739030639
 21
53.5939049856
 31
0.0
  0
LINE
  5
129
330
1F
100
AcDbEntity
  8
0
  6
Continuous
 62
     7
370
    25
100
AcDbLine
 10
122.2739030639
 20
52.3939049856
 30
0.0
 11
126.2739030639
 21
52.3939049856
 31
0.0
  0
LINE
  5
12A
330
1F
100
AcDbEntity
  8
0
  6
Continuous
 62
     7
370
    25
100
AcDbLine
 10
122.2739030639
 20
53.5939049856
 30
0.0
 11
126.2739030639
 21
53.5939049856
 31
0.0
  0
LWPOLYLINE
  5
12B
330
1F
100
AcDbEntity
  8
0
  6
Continuous
 62
     7
370
    25
100
AcDbPolyline
 90
        3
 70
   128
 43
0.0
 10
70.3223030639
 20
54.3305049856
 10
70.3595142899
 20
53.952693068
 10
70.4678586758
 20
53.5939049856
  0
ARC
  5
12C
330
1F
100
AcDbEntity
  8
0
  6
Continuous
 62
     7
370
    25
100
AcDbCircle
 10
72.2589030639
 20
54.3305049856
 30
0.0
 40
0.7366000000000028
100
AcDbArc
 50
180.0
 51
270.0
  0
LINE
  5
12D
330
1F
100
AcDbEntity
  8
0
  6
Continuous
 62
     7
370
    25
100
AcDbLine
 10
70.3223030639
 20
54.3305049856
 30
0.0
 11
70.3223030639
 21
73.5939049856
 31
0.0
  0
LINE
  5
12E
330
1F
100
AcDbEntity
  8
0
  6
Continuous
 62
     7
370
    25
100
AcDbLine
 10
71.5223030639
 20
54.3305049856
 30
0.0
 11
71.5223030639
 21
73.5939049856
 31
0.0
  0
LINE
  5
12F
330
1F
100
AcDbEntity
  8
0
  6
Continuous
 62
     7
370
    25
100
AcDbLine
 10
70.3223030639
 20
77.5939049856
 30
0.0
 11
71.5223030639
 21
77.5939049856
 31
0.0
  0
LINE
  5
130
330
1F
100
AcDbEntity
  8
0
  6
Continuous
 62
     7
370
    25
100
AcDbLine
 10
70.3223030639
 20
73.5939049856
 30
0.0
 11
70.3223030639
 21
77.5939049856
 31
0.0
  0
LINE
  5
131
330
1F
100
AcDbEntity
  8
0
  6
Continuous
 62
     7
370
    25
100
AcDbLine
 10
71.5223030639
 20
77.5939049856
 30
0.0
 11
71.5223030639
 21
73.5939049856
 31
0.0
  0
LWPOLYLINE
  5
132
330
1F
100
AcDbEntity
  8
0
  6
Continuous
 62
     7
370
    25
100
AcDbPolyline
 90
        3
 70
   128
 43
0.0
 10
112.079947452
 20
53.5939049856
 10
112.1882918379
 20
53.952693068
 10
112.2255030639
 20
54.3305049856
  0
ARC
  5
133
330
1F
100
AcDbEntity
  8
0
  6
Continuous
 62
     7
370
    25
100
AcDbCircle
 10
110.2889030639
 20
54.3305049856
 30
0.0
 40
0.7366000000000028
100
AcDbArc
 50
270.0
 51
0.0
  0
LINE
  5
134
330
1F
100
AcDbEntity
  8
0
  6
Continuous
 62
     7
370
    25
100
AcDbLine
 10
111.0255030639
 20
73.5939049856
 30
0.0
 11
111.0255030639
 21
77.5939049856
 31
0.0
  0
LINE
  5
135
330
1F
100
AcDbEntity
  8
0
  6
Continuous
 62
     7
370
    25
100
AcDbLine
 10
111.0255030639
 20
77.5939049856
 30
0.0
 11
112.2255030639
 21
77.5939049856
 31
0.0
  0
LINE
  5
136
330
1F
100
AcDbEntity
  8
0
  6
Continuous
 62
     7
370
    25
100
AcDbLine
 10
112.2255030639
 20
77.5939049856
 30
0.0
 11
112.2255030639
 21
73.5939049856
 31
0.0
  0
LINE
  5
137
330
1F
100
AcDbEntity
  8
0
  6
Continuous
 62
     7
370
    25
100
AcDbLine
 10
111.0255030639
 20
73.5939049856
 30
0.0
 11
111.0255030639
 21
54.3305049856
 31
0.0
  0
LINE
  5
138
330
1F
100
AcDbEntity
  8
0
  6
Continuous
 62
     7
370
    25
100
AcDbLine
 10
112.2255030639
 20
73.5939049856
 30
0.0
 11
112.2255030639
 21
54.3305049856
 31
0.0
  0
DIMENSION
  5
139
330
1F
100
AcDbEntity
  8
0
  6
Continuous
 62
     7
370
    18
100
AcDbDimension
  2
_D
 10
46.2739030639
 20
52.3939049856
 30
0.0
 11
46.2739030639
 21
64.9939049856
 31
0.0
 70
   160
  1
<>
 71
     2
 42
-1.0
  3
SLDDIMSTYLE0
100
AcDbAlignedDimension
 13
70.3223030639
 23
77.5939049856
 33
0.0
 14
56.2739030639
 24
52.3939049856
 34
0.0
 50
90.0
100
AcDbRotatedDimension
  0
DIMENSION
  5
144
330
1F
100
AcDbEntity
  8
0
  6
Continuous
 62
     7
370
    18
100
AcDbDimension
  2
_D_1
 10
136.2739030639
 20
53.5939049856
 30
0.0
 11
136.2739030639
 21
61.2827544568
 31
0.0
 70
   160
  1
t=1.2
 71
     2
 42
-1.0
  3
SLDDIMSTYLE1
100
AcDbAlignedDimension
 13
126.2739030639
 23
52.3939049856
 33
0.0
 14
126.2739030639
 24
53.5939049856
 34
0.0
 50
90.0
100
AcDbRotatedDimension
  0
LINE
  5
151
330
1F
100
AcDbEntity
  8
0
  6
Continuous
 62
     7
370
    25
100
AcDbLine
 10
71.5223030639
 20
152.3411381956
 30
0.0
 11
70.3223030639
 21
152.3411381956
 31
0.0
  0
LINE
  5
152
330
1F
100
AcDbEntity
  8
0
  6
Continuous
 62
     7
370
    25
100
AcDbLine
 10
70.3223030639
 20
152.3411381956
 30
0.0
 11
70.3223030639
 21
153.3411381956
 31
0.0
  0
LINE
  5
153
330
1F
100
AcDbEntity
  8
0
  6
Continuous
 62
     7
370
    25
100
AcDbLine
 10
71.5223030639
 20
153.3411381956
 30
0.0
 11
71.5223030639
 21
152.3411381956
 31
0.0
  0
LINE
  5
154
330
1F
100
AcDbEntity
  8
0
  6
Continuous
 62
     7
370
    25
100
AcDbLine
 10
70.3223030639
 20
131.1411381956
 30
0.0
 11
71.5223030639
 21
131.1411381956
 31
0.0
  0
LINE
  5
155
330
1F
100
AcDbEntity
  8
0
  6
Continuous
 62
     7
370
    25
100
AcDbLine
 10
70.3223030639
 20
130.1411381956
 30
0.0
 11
70.3223030639
 21
131.1411381956
 31
0.0
  0
LINE
  5
156
330
1F
100
AcDbEntity
  8
0
  6
Continuous
 62
     7
370
    25
100
AcDbLine
 10
71.5223030639
 20
131.1411381956
 30
0.0
 11
71.5223030639
 21
130.1411381956
 31
0.0
  0
LINE
  5
157
330
1F
100
AcDbEntity
  8
0
  6
Continuous
 62
     7
370
    25
100
AcDbLine
 10
71.5223030639
 20
125.2411381956
 30
0.0
 11
70.3223030639
 21
125.2411381956
 31
0.0
  0
LINE
  5
158
330
1F
100
AcDbEntity
  8
0
  6
Continuous
 62
     7
370
    25
100
AcDbLine
 10
70.3223030639
 20
125.2411381956
 30
0.0
 11
70.3223030639
 21
129.2411381956
 31
0.0
  0
LINE
  5
159
330
1F
100
AcDbEntity
  8
0
  6
Continuous
 62
     7
370
    25
100
AcDbLine
 10
71.5223030639
 20
129.2411381956
 30
0.0
 11
71.5223030639
 21
125.2411381956
 31
0.0
  0
LINE
  5
15A
330
1F
100
AcDbEntity
  8
0
  6
Continuous
 62
     7
370
    25
100
AcDbLine
 10
70.3223030639
 20
129.2411381956
 30
0.0
 11
70.3223030639
 21
130.1411381956
 31
0.0
  0
LINE
  5
15B
330
1F
100
AcDbEntity
  8
0
  6
Continuous
 62
     7
370
    25
100
AcDbLine
 10
71.5223030639
 20
129.2411381956
 30
0.0
 11
71.5223030639
 21
130.1411381956
 31
0.0
  0
LINE
  5
15C
330
1F
100
AcDbEntity
  8
0
  6
Continuous
 62
     7
370
    25
100
AcDbLine
 10
70.3223030639
 20
135.3411381956
 30
0.0
 11
70.3223030639
 21
148.1411381956
 31
0.0
  0
LINE
  5
15D
330
1F
100
AcDbEntity
  8
0
  6
Continuous
 62
     7
370
    25
100
AcDbLine
 10
71.5223030639
 20
135.3411381956
 30
0.0
 11
71.5223030639
 21
148.1411381956
 31
0.0
  0
LINE
  5
15E
330
1F
100
AcDbEntity
  8
0
  6
Continuous
 62
     7
370
    25
100
AcDbLine
 10
71.5223030639
 20
134.3411381956
 30
0.0
 11
70.3223030639
 21
134.3411381956
 31
0.0
  0
LINE
  5
15F
330
1F
100
AcDbEntity
  8
0
  6
Continuous
 62
     7
370
    25
100
AcDbLine
 10
70.3223030639
 20
134.3411381956
 30
0.0
 11
70.3223030639
 21
135.3411381956
 31
0.0
  0
LINE
  5
160
330
1F
100
AcDbEntity
  8
0
  6
Continuous
 62
     7
370
    25
100
AcDbLine
 10
71.5223030639
 20
135.3411381956
 30
0.0
 11
71.5223030639
 21
134.3411381956
 31
0.0
  0
LINE
  5
161
330
1F
100
AcDbEntity
  8
0
  6
Continuous
 62
     7
370
    25
100
AcDbLine
 10
70.3223030639
 20
158.2411381956
 30
0.0
 11
71.5223030639
 21
158.2411381956
 31
0.0
  0
LINE
  5
162
330
1F
100
AcDbEntity
  8
0
  6
Continuous
 62
     7
370
    25
100
AcDbLine
 10
70.3223030639
 20
154.2411381956
 30
0.0
 11
70.3223030639
 21
158.2411381956
 31
0.0
  0
LINE
  5
163
330
1F
100
AcDbEntity
  8
0
  6
Continuous
 62
     7
370
    25
100
AcDbLine
 10
71.5223030639
 20
158.2411381956
 30
0.0
 11
71.5223030639
 21
154.2411381956
 31
0.0
  0
LINE
  5
164
330
1F
100
AcDbEntity
  8
0
  6
Continuous
 62
     7
370
    25
100
AcDbLine
 10
70.3223030639
 20
149.1411381956
 30
0.0
 11
71.5223030639
 21
149.1411381956
 31
0.0
  0
LINE
  5
165
330
1F
100
AcDbEntity
  8
0
  6
Continuous
 62
     7
370
    25
100
AcDbLine
 10
70.3223030639
 20
148.1411381956
 30
0.0
 11
70.3223030639
 21
149.1411381956
 31
0.0
  0
LINE
  5
166
330
1F
100
AcDbEntity
  8
0
  6
Continuous
 62
     7
370
    25
100
AcDbLine
 10
71.5223030639
 20
149.1411381956
 30
0.0
 11
71.5223030639
 21
148.1411381956
 31
0.0
  0
LINE
  5
167
330
1F
100
AcDbEntity
  8
0
  6
Continuous
 62
     7
370
    25
100
AcDbLine
 10
70.3223030639
 20
153.3411381956
 30
0.0
 11
70.3223030639
 21
154.2411381956
 31
0.0
  0
LINE
  5
168
330
1F
100
AcDbEntity
  8
0
  6
Continuous
 62
     7
370
    25
100
AcDbLine
 10
71.5223030639
 20
153.3411381956
 30
0.0
 11
71.5223030639
 21
154.2411381956
 31
0.0
  0
LINE
  5
169
330
1F
100
AcDbEntity
  8
0
  6
Continuous
 62
     7
370
    25
100
AcDbLine
 10
111.0255030639
 20
148.1411381956
 30
0.0
 11
111.0255030639
 21
135.3411381956
 31
0.0
  0
LINE
  5
16A
330
1F
100
AcDbEntity
  8
0
  6
Continuous
 62
     7
370
    25
100
AcDbLine
 10
112.2255030639
 20
148.1411381956
 30
0.0
 11
112.2255030639
 21
135.3411381956
 31
0.0
  0
LINE
  5
16B
330
1F
100
AcDbEntity
  8
0
  6
Continuous
 62
     7
370
    25
100
AcDbLine
 10
111.0255030639
 20
130.1411381956
 30
0.0
 11
111.0255030639
 21
129.2411381956
 31
0.0
  0
LINE
  5
16C
330
1F
100
AcDbEntity
  8
0
  6
Continuous
 62
     7
370
    25
100
AcDbLine
 10
112.2255030639
 20
130.1411381956
 30
0.0
 11
112.2255030639
 21
129.2411381956
 31
0.0
  0
LINE
  5
16D
330
1F
100
AcDbEntity
  8
0
  6
Continuous
 62
     7
370
    25
100
AcDbLine
 10
112.2255030639
 20
152.3411381956
 30
0.0
 11
111.0255030639
 21
152.3411381956
 31
0.0
  0
LINE
  5
16E
330
1F
100
AcDbEntity
  8
0
  6
Continuous
 62
     7
370
    25
100
AcDbLine
 10
111.0255030639
 20
152.3411381956
 30
0.0
 11
111.0255030639
 21
153.3411381956
 31
0.0
  0
LINE
  5
16F
330
1F
100
AcDbEntity
  8
0
  6
Continuous
 62
     7
370
    25
100
AcDbLine
 10
112.2255030639
 20
153.3411381956
 30
0.0
 11
112.2255030639
 21
152.3411381956
 31
0.0
  0
LINE
  5
170
330
1F
100
AcDbEntity
  8
0
  6
Continuous
 62
     7
370
    25
100
AcDbLine
 10
112.2255030639
 20
125.2411381956
 30
0.0
 11
111.0255030639
 21
125.2411381956
 31
0.0
  0
LINE
  5
171
330
1F
100
AcDbEntity
  8
0
  6
Continuous
 62
     7
370
    25
100
AcDbLine
 10
111.0255030639
 20
125.2411381956
 30
0.0
 11
111.0255030639
 21
129.2411381956
 31
0.0
  0
LINE
  5
172
330
1F
100
AcDbEntity
  8
0
  6
Continuous
 62
     7
370
    25
100
AcDbLine
 10
112.2255030639
 20
129.2411381956
 30
0.0
 11
112.2255030639
 21
125.2411381956
 31
0.0
  0
LINE
  5
173
330
1F
100
AcDbEntity
  8
0
  6
Continuous
 62
     7
370
    25
100
AcDbLine
 10
111.0255030639
 20
131.1411381956
 30
0.0
 11
112.2255030639
 21
131.1411381956
 31
0.0
  0
LINE
  5
174
330
1F
100
AcDbEntity
  8
0
  6
Continuous
 62
     7
370
    25
100
AcDbLine
 10
112.2255030639
 20
131.1411381956
 30
0.0
 11
112.2255030639
 21
130.1411381956
 31
0.0
  0
LINE
  5
175
330
1F
100
AcDbEntity
  8
0
  6
Continuous
 62
     7
370
    25
100
AcDbLine
 10
111.0255030639
 20
130.1411381956
 30
0.0
 11
111.0255030639
 21
131.1411381956
 31
0.0
  0
LINE
  5
176
330
1F
100
AcDbEntity
  8
0
  6
Continuous
 62
     7
370
    25
100
AcDbLine
 10
111.0255030639
 20
149.1411381956
 30
0.0
 11
112.2255030639
 21
149.1411381956
 31
0.0
  0
LINE
  5
177
330
1F
100
AcDbEntity
  8
0
  6
Continuous
 62
     7
370
    25
100
AcDbLine
 10
112.2255030639
 20
149.1411381956
 30
0.0
 11
112.2255030639
 21
148.1411381956
 31
0.0
  0
LINE
  5
178
330
1F
100
AcDbEntity
  8
0
  6
Continuous
 62
     7
370
    25
100
AcDbLine
 10
111.0255030639
 20
148.1411381956
 30
0.0
 11
111.0255030639
 21
149.1411381956
 31
0.0
  0
LINE
  5
179
330
1F
100
AcDbEntity
  8
0
  6
Continuous
 62
     7
370
    25
100
AcDbLine
 10
112.2255030639
 20
134.3411381956
 30
0.0
 11
111.0255030639
 21
134.3411381956
 31
0.0
  0
LINE
  5
17A
330
1F
100
AcDbEntity
  8
0
  6
Continuous
 62
     7
370
    25
100
AcDbLine
 10
111.0255030639
 20
134.3411381956
 30
0.0
 11
111.0255030639
 21
135.3411381956
 31
0.0
  0
LINE
  5
17B
330
1F
100
AcDbEntity
  8
0
  6
Continuous
 62
     7
370
    25
100
AcDbLine
 10
112.2255030639
 20
135.3411381956
 30
0.0
 11
112.2255030639
 21
134.3411381956
 31
0.0
  0
LINE
  5
17C
330
1F
100
AcDbEntity
  8
0
  6
Continuous
 62
     7
370
    25
100
AcDbLine
 10
112.2255030639
 20
154.2411381956
 30
0.0
 11
112.2255030639
 21
153.3411381956
 31
0.0
  0
LINE
  5
17D
330
1F
100
AcDbEntity
  8
0
  6
Continuous
 62
     7
370
    25
100
AcDbLine
 10
111.0255030639
 20
154.2411381956
 30
0.0
 11
111.0255030639
 21
153.3411381956
 31
0.0
  0
LINE
  5
17E
330
1F
100
AcDbEntity
  8
0
  6
Continuous
 62
     7
370
    25
100
AcDbLine
 10
111.0255030639
 20
158.2411381956
 30
0.0
 11
112.2255030639
 21
158.2411381956
 31
0.0
  0
LINE
  5
17F
330
1F
100
AcDbEntity
  8
0
  6
Continuous
 62
     7
370
    25
100
AcDbLine
 10
112.2255030639
 20
158.2411381956
 30
0.0
 11
112.2255030639
 21
154.2411381956
 31
0.0
  0
LINE
  5
180
330
1F
100
AcDbEntity
  8
0
  6
Continuous
 62
     7
370
    25
100
AcDbLine
 10
111.0255030639
 20
154.2411381956
 30
0.0
 11
111.0255030639
 21
158.2411381956
 31
0.0
  0
LINE
  5
181
330
1F
100
AcDbEntity
  8
0
  6
Continuous
 62
     7
370
    25
100
AcDbLine
 10
112.2255030639
 20
149.1411381956
 30
0.0
 11
112.2255030639
 21
152.3411381956
 31
0.0
  0
LINE
  5
182
330
1F
100
AcDbEntity
  8
0
  6
Continuous
 62
     7
370
    25
100
AcDbLine
 10
111.0255030639
 20
149.1411381956
 30
0.0
 11
111.0255030639
 21
152.3411381956
 31
0.0
  0
LINE
  5
183
330
1F
100
AcDbEntity
  8
0
  6
Continuous
 62
     7
370
    25
100
AcDbLine
 10
112.2255030639
 20
131.1411381956
 30
0.0
 11
112.2255030639
 21
134.3411381956
 31
0.0
  0
LINE
  5
184
330
1F
100
AcDbEntity
  8
0
  6
Continuous
 62
     7
370
    25
100
AcDbLine
 10
111.0255030639
 20
131.1411381956
 30
0.0
 11
111.0255030639
 21
134.3411381956
 31
0.0
  0
LINE
  5
185
330
1F
100
AcDbEntity
  8
0
  6
Continuous
 62
     7
370
    25
100
AcDbLine
 10
70.3223030639
 20
134.3411381956
 30
0.0
 11
70.3223030639
 21
131.1411381956
 31
0.0
  0
LINE
  5
186
330
1F
100
AcDbEntity
  8
0
  6
Continuous
 62
     7
370
    25
100
AcDbLine
 10
71.5223030639
 20
134.3411381956
 30
0.0
 11
71.5223030639
 21
131.1411381956
 31
0.0
  0
LINE
  5
187
330
1F
100
AcDbEntity
  8
0
  6
Continuous
 62
     7
370
    25
100
AcDbLine
 10
70.3223030639
 20
152.3411381956
 30
0.0
 11
70.3223030639
 21
149.1411381956
 31
0.0
  0
LINE
  5
188
330
1F
100
AcDbEntity
  8
0
  6
Continuous
 62
     7
370
    25
100
AcDbLine
 10
71.5223030639
 20
152.3411381956
 30
0.0
 11
71.5223030639
 21
149.1411381956
 31
0.0
  0
LINE
  5
189
330
1F
100
AcDbEntity
  8
0
  6
Continuous
 62
     7
370
    25
100
AcDbLine
 10
71.5223030639
 20
125.2411381956
 30
0.0
 11
72.2589030639
 21
125.2411381956
 31
0.0
  0
LINE
  5
18A
330
1F
100
AcDbEntity
  8
0
  6
Continuous
 62
     7
370
    25
100
AcDbLine
 10
72.2589030639
 20
158.2411381956
 30
0.0
 11
71.5223030639
 21
158.2411381956
 31
0.0
  0
LINE
  5
18B
330
1F
100
AcDbEntity
  8
0
  6
Continuous
 62
     7
370
    25
100
AcDbLine
 10
111.0255030639
 20
158.2411381956
 30
0.0
 11
110.2889030639
 21
158.2411381956
 31
0.0
  0
LINE
  5
18C
330
1F
100
AcDbEntity
  8
0
  6
Continuous
 62
     7
370
    25
100
AcDbLine
 10
110.2889030639
 20
125.2411381956
 30
0.0
 11
111.0255030639
 21
125.2411381956
 31
0.0
  0
ARC
  5
18D
330
1F
100
AcDbEntity
  8
0
  6
Continuous
 62
     7
370
    25
100
AcDbCircle
 10
122.2739030639
 20
172.7411381956
 30
0.0
 40
4.0
100
AcDbArc
 50
0.0
 51
90.0
  0
LINE
  5
18E
330
1F
100
AcDbEntity
  8
0
  6
Continuous
 62
     7
370
    25
100
AcDbLine
 10
126.2739030639
 20
163.2411381956
 30
0.0
 11
126.2739030639
 21
172.7411381956
 31
0.0
  0
ARC
  5
18F
330
1F
100
AcDbEntity
  8
0
  6
Continuous
 62
     7
370
    25
100
AcDbCircle
 10
122.2739030639
 20
163.2411381956
 30
0.0
 40
4.000000000000014
100
AcDbArc
 50
270.0
 51
0.0
  0
LINE
  5
190
330
1F
100
AcDbEntity
  8
0
  6
Continuous
 62
     7
370
    25
100
AcDbLine
 10
111.2889030639
 20
159.2411381956
 30
0.0
 11
122.2739030639
 21
159.2411381956
 31
0.0
  0
ARC
  5
191
330
1F
100
AcDbEntity
  8
0
  6
Continuous
 62
     7
370
    25
100
AcDbCircle
 10
110.2889030639
 20
124.2411381956
 30
0.0
 40
1.000000000000014
100
AcDbArc
 50
90.0
 51
0.0
  0
LINE
  5
192
330
1F
100
AcDbEntity
  8
0
  6
Continuous
 62
     7
370
    25
100
AcDbLine
 10
122.9739030639
 20
111.7411381956
 30
0.0
 11
122.9739030639
 21
118.7411381956
 31
0.0
  0
LINE
  5
193
330
1F
100
AcDbEntity
  8
0
  6
Continuous
 62
     7
370
    25
100
AcDbLine
 10
62.9739030639
 20
111.7411381956
 30
0.0
 11
62.9739030639
 21
118.7411381956
 31
0.0
  0
ARC
  5
194
330
1F
100
AcDbEntity
  8
0
  6
Continuous
 62
     7
370
    25
100
AcDbCircle
 10
61.2739030639
 20
118.7411381956
 30
0.0
 40
1.700000000000003
100
AcDbArc
 50
0.0
 51
180.0
  0
LINE
  5
195
330
1F
100
AcDbEntity
  8
0
  6
Continuous
 62
     7
370
    25
100
AcDbLine
 10
59.5739030639
 20
118.7411381956
 30
0.0
 11
59.5739030639
 21
111.7411381956
 31
0.0
  0
ARC
  5
196
330
1F
100
AcDbEntity
  8
0
  6
Continuous
 62
     7
370
    25
100
AcDbCircle
 10
61.2739030639
 20
111.7411381956
 30
0.0
 40
1.700000000000003
100
AcDbArc
 50
180.0
 51
0.0
  0
ARC
  5
197
330
1F
100
AcDbEntity
  8
0
  6
Continuous
 62
     7
370
    25
100
AcDbCircle
 10
110.2889030639
 20
159.2411381956
 30
0.0
 40
1.0
100
AcDbArc
 50
0.0
 51
270.0
  0
LINE
  5
198
330
1F
100
AcDbEntity
  8
0
  6
Continuous
 62
     7
370
    25
100
AcDbLine
 10
71.2589030639
 20
124.2411381956
 30
0.0
 11
60.2739030639
 21
124.2411381956
 31
0.0
  0
ARC
  5
199
330
1F
100
AcDbEntity
  8
0
  6
Continuous
 62
     7
370
    25
100
AcDbCircle
 10
60.2739030639
 20
120.2411381956
 30
0.0
 40
4.000000000000007
100
AcDbArc
 50
90.0
 51
180.0
  0
LINE
  5
19A
330
1F
100
AcDbEntity
  8
0
  6
Continuous
 62
     7
370
    25
100
AcDbLine
 10
56.2739030639
 20
120.2411381956
 30
0.0
 11
56.2739030639
 21
110.7411381956
 31
0.0
  0
ARC
  5
19B
330
1F
100
AcDbEntity
  8
0
  6
Continuous
 62
     7
370
    25
100
AcDbCircle
 10
60.2739030639
 20
110.7411381956
 30
0.0
 40
4.0
100
AcDbArc
 50
180.0
 51
270.0
  0
LINE
  5
19C
330
1F
100
AcDbEntity
  8
0
  6
Continuous
 62
     7
370
    25
100
AcDbLine
 10
60.2739030639
 20
106.7411381956
 30
0.0
 11
122.2739030639
 21
106.7411381956
 31
0.0
  0
ARC
  5
19D
330
1F
100
AcDbEntity
  8
0
  6
Continuous
 62
     7
370
    25
100
AcDbCircle
 10
122.2739030639
 20
110.7411381956
 30
0.0
 40
4.0
100
AcDbArc
 50
270.0
 51
0.0
  0
LINE
  5
19E
330
1F
100
AcDbEntity
  8
0
  6
Continuous
 62
     7
370
    25
100
AcDbLine
 10
126.2739030639
 20
110.7411381956
 30
0.0
 11
126.2739030639
 21
120.2411381956
 31
0.0
  0
ARC
  5
19F
330
1F
100
AcDbEntity
  8
0
  6
Continuous
 62
     7
370
    25
100
AcDbCircle
 10
122.2739030639
 20
120.2411381956
 30
0.0
 40
4.000000000000014
100
AcDbArc
 50
0.0
 51
90.0
  0
LINE
  5
1A0
330
1F
100
AcDbEntity
  8
0
  6
Continuous
 62
     7
370
    25
100
AcDbLine
 10
122.2739030639
 20
124.2411381956
 30
0.0
 11
111.2889030639
 21
124.2411381956
 31
0.0
  0
ARC
  5
1A1
330
1F
100
AcDbEntity
  8
0
  6
Continuous
 62
     7
370
    25
100
AcDbCircle
 10
121.2739030639
 20
118.7411381956
 30
0.0
 40
1.700000000000003
100
AcDbArc
 50
0.0
 51
180.0
  0
LINE
  5
1A2
330
1F
100
AcDbEntity
  8
0
  6
Continuous
 62
     7
370
    25
100
AcDbLine
 10
119.5739030639
 20
118.7411381956
 30
0.0
 11
119.5739030639
 21
111.7411381956
 31
0.0
  0
ARC
  5
1A3
330
1F
100
AcDbEntity
  8
0
  6
Continuous
 62
     7
370
    25
100
AcDbCircle
 10
121.2739030639
 20
111.7411381956
 30
0.0
 40
1.700000000000003
100
AcDbArc
 50
180.0
 51
0.0
  0
LINE
  5
1A4
330
1F
100
AcDbEntity
  8
0
  6
Continuous
 62
     7
370
    25
100
AcDbLine
 10
119.5739030639
 20
171.7411381956
 30
0.0
 11
119.5739030639
 21
164.7411381956
 31
0.0
  0
ARC
  5
1A5
330
1F
100
AcDbEntity
  8
0
  6
Continuous
 62
     7
370
    25
100
AcDbCircle
 10
121.2739030639
 20
164.7411381956
 30
0.0
 40
1.700000000000003
100
AcDbArc
 50
180.0
 51
0.0
  0
LINE
  5
1A6
330
1F
100
AcDbEntity
  8
0
  6
Continuous
 62
     7
370
    25
100
AcDbLine
 10
122.9739030639
 20
164.7411381956
 30
0.0
 11
122.9739030639
 21
171.7411381956
 31
0.0
  0
ARC
  5
1A7
330
1F
100
AcDbEntity
  8
0
  6
Continuous
 62
     7
370
    25
100
AcDbCircle
 10
121.2739030639
 20
171.7411381956
 30
0.0
 40
1.700000000000003
100
AcDbArc
 50
0.0
 51
180.0
  0
LINE
  5
1A8
330
1F
100
AcDbEntity
  8
0
  6
Continuous
 62
     7
370
    25
100
AcDbLine
 10
122.2739030639
 20
176.7411381956
 30
0.0
 11
60.2739030639
 21
176.7411381956
 31
0.0
  0
ARC
  5
1A9
330
1F
100
AcDbEntity
  8
0
  6
Continuous
 62
     7
370
    25
100
AcDbCircle
 10
60.2739030639
 20
172.7411381956
 30
0.0
 40
4.0
100
AcDbArc
 50
90.0
 51
180.0
  0
LINE
  5
1AA
330
1F
100
AcDbEntity
  8
0
  6
Continuous
 62
     7
370
    25
100
AcDbLine
 10
56.2739030639
 20
172.7411381956
 30
0.0
 11
56.2739030639
 21
163.2411381956
 31
0.0
  0
ARC
  5
1AB
330
1F
100
AcDbEntity
  8
0
  6
Continuous
 62
     7
370
    25
100
AcDbCircle
 10
60.2739030639
 20
163.2411381956
 30
0.0
 40
4.000000000000007
100
AcDbArc
 50
180.0
 51
270.0
  0
LINE
  5
1AC
330
1F
100
AcDbEntity
  8
0
  6
Continuous
 62
     7
370
    25
100
AcDbLine
 10
60.2739030639
 20
159.2411381956
 30
0.0
 11
71.2589030639
 21
159.2411381956
 31
0.0
  0
ARC
  5
1AD
330
1F
100
AcDbEntity
  8
0
  6
Continuous
 62
     7
370
    25
100
AcDbCircle
 10
72.2589030639
 20
159.2411381956
 30
0.0
 40
1.0
100
AcDbArc
 50
270.0
 51
180.0
  0
ARC
  5
1AE
330
1F
100
AcDbEntity
  8
0
  6
Continuous
 62
     7
370
    25
100
AcDbCircle
 10
72.2589030639
 20
124.2411381956
 30
0.0
 40
1.0
100
AcDbArc
 50
180.0
 51
90.0
  0
ARC
  5
1AF
330
1F
100
AcDbEntity
  8
0
  6
Continuous
 62
     7
370
    25
100
AcDbCircle
 10
61.2739030639
 20
164.7411381956
 30
0.0
 40
1.700000000000003
100
AcDbArc
 50
180.0
 51
0.0
  0
LINE
  5
1B0
330
1F
100
AcDbEntity
  8
0
  6
Continuous
 62
     7
370
    25
100
AcDbLine
 10
62.9739030639
 20
164.7411381956
 30
0.0
 11
62.9739030639
 21
171.7411381956
 31
0.0
  0
ARC
  5
1B1
330
1F
100
AcDbEntity
  8
0
  6
Continuous
 62
     7
370
    25
100
AcDbCircle
 10
61.2739030639
 20
171.7411381956
 30
0.0
 40
1.700000000000003
100
AcDbArc
 50
0.0
 51
180.0
  0
LINE
  5
1B2
330
1F
100
AcDbEntity
  8
0
  6
Continuous
 62
     7
370
    25
100
AcDbLine
 10
59.5739030639
 20
171.7411381956
 30
0.0
 11
59.5739030639
 21
164.7411381956
 31
0.0
  0
LINE
  5
1B3
330
1F
100
AcDbEntity
  8
0
  6
CENTERX2
 62
     7
370
    18
100
AcDbLine
 10
57.9772853163
 20
168.2411381956
 30
0.0
 11
64.5403164967
 21
168.2411381956
 31
0.0
  0
LINE
  5
1B4
330
1F
100
AcDbEntity
  8
0
  6
CENTERX2
 62
     7
370
    18
100
AcDbLine
 10
57.9772853163
 20
115.2411381956
 30
0.0
 11
64.0713862795
 21
115.2411381956
 31
0.0
  0
LINE
  5
1B5
330
1F
100
AcDbEntity
  8
0
  6
CENTERX2
 62
     7
370
    18
100
AcDbLine
 10
91.2739030639
 20
99.79633589
 30
0.0
 11
91.2739030639
 21
181.1424561057
 31
0.0
  0
LINE
  5
1B6
330
1F
100
AcDbEntity
  8
0
  6
CENTERX2
 62
     7
370
    18
100
AcDbLine
 10
116.5549065857
 20
168.2411381956
 30
0.0
 11
124.4654689148
 21
168.2411381956
 31
0.0
  0
LINE
  5
1B7
330
1F
100
AcDbEntity
  8
0
  6
CENTERX2
 62
     7
370
    18
100
AcDbLine
 10
55.7458885346
 20
141.7411381956
 30
0.0
 11
126.7902332843
 21
141.7411381956
 31
0.0
  0
LINE
  5
1B8
330
1F
100
AcDbEntity
  8
0
  6
CENTERX2
 62
     7
370
    18
100
AcDbLine
 10
116.5549065857
 20
115.2411381956
 30
0.0
 11
124.4654689148
 21
115.2411381956
 31
0.0
  0
DIMENSION
  5
1B9
330
1F
100
AcDbEntity
  8
0
  6
Continuous
 62
     7
370
    18
100
AcDbDimension
  2
_D_2
 10
46.2739030639
 20
115.2411381956
 30
0.0
 11
46.2739030639
 21
142.4577281906
 31
0.0
 70
   160
  1
<>
 71
     2
 42
-1.0
  3
SLDDIMSTYLE2
100
AcDbAlignedDimension
 13
57.9772853163
 23
168.2411381956
 33
0.0
 14
57.9772853163
 24
115.2411381956
 34
0.0
 50
90.0
100
AcDbRotatedDimension
  0
DIMENSION
  5
1C4
330
1F
100
AcDbEntity
  8
0
  6
Continuous
 62
     7
370
    18
100
AcDbDimension
  2
_D_3
 10
111.0255030639
 20
183.2130287577
 30
0.0
 11
91.2739030639
 21
183.2130287577
 31
0.0
 70
   160
  1
<>
 71
     2
 42
-1.0
  3
SLDDIMSTYLE3
100
AcDbAlignedDimension
 13
71.5223030639
 23
148.1411381956
 33
0.0
 14
111.0255030639
 24
148.1411381956
 34
0.0
100
AcDbRotatedDimension
  0
DIMENSION
  5
1CF
330
1F
100
AcDbEntity
  8
0
  6
Continuous
 62
     7
370
    18
100
AcDbDimension
  2
_D_4
 10
121.2739030639
 20
192.7411381956
 30
0.0
 11
91.2739030639
 21
192.7411381956
 31
0.0
 70
   160
  1
<>
 71
     2
 42
-1.0
  3
SLDDIMSTYLE2
100
AcDbAlignedDimension
 13
61.2739030639
 23
111.7411381956
 33
0.0
 14
121.2739030639
 24
111.7411381956
 34
0.0
100
AcDbRotatedDimension
  0
DIMENSION
  5
1D9
330
1F
100
AcDbEntity
  8
0
  6
Continuous
 62
     7
370
    18
100
AcDbDimension
  2
_D_5
 10
37.0193847921
 20
106.7411381956
 30
0.0
 11
37.0193847921
 21
142.4577281906
 31
0.0
 70
   160
  1
<>
 71
     2
 42
-1.0
  3
SLDDIMSTYLE2
100
AcDbAlignedDimension
 13
60.2739030639
 23
176.7411381956
 33
0.0
 14
60.2739030639
 24
106.7411381956
 34
0.0
 50
90.0
100
AcDbRotatedDimension
  0
DIMENSION
  5
1E3
330
1F
100
AcDbEntity
  8
0
  6
Continuous
 62
     7
370
    18
100
AcDbDimension
  2
_D_6
 10
126.2739030639
 20
90.7411381956
 30
0.0
 11
91.2739030639
 21
90.7411381956
 31
0.0
 70
   160
  1
<>
 71
     2
 42
-1.0
  3
SLDDIMSTYLE2
100
AcDbAlignedDimension
 13
56.2739030639
 23
110.7411381956
 33
0.0
 14
126.2739030639
 24
110.7411381956
 34
0.0
 50
0.0
100
AcDbRotatedDimension
  0
INSERT
  5
1F7
330
1F
100
AcDbEntity
  8
0
  6
Continuous
 62
     7
370
     0
100
AcDbBlockReference
  2
SW_NOTE_0
 10
129.9315068493
 20
127.4745342466
 30
0.0
  0
LEADER
  5
1F9
330
1F
100
AcDbEntity
  8
0
  6
Continuous
 62
     7
370
     0
100
AcDbLeader
  3
SLDDIMSTYLE4
 76
     2
 10
122.1796294452
 20
120.179769393
 30
0.0
 10
129.9315068493
 20
127.4745342466
 30
0.0
  0
LINE
  5
1FA
330
1F
100
AcDbEntity
  8
0
  6
Continuous
 62
     7
370
    25
100
AcDbLine
 10
248.593805232
 20
52.3939049856
 30
0.0
 11
248.593805232
 21
53.5939049856
 31
0.0
  0
LINE
  5
1FB
330
1F
100
AcDbEntity
  8
0
  6
Continuous
 62
     7
370
    25
100
AcDbLine
 10
244.593805232
 20
52.3939049856
 30
0.0
 11
248.593805232
 21
52.3939049856
 31
0.0
  0
LINE
  5
1FC
330
1F
100
AcDbEntity
  8
0
  6
Continuous
 62
     7
370
    25
100
AcDbLine
 10
244.593805232
 20
53.5939049856
 30
0.0
 11
248.593805232
 21
53.5939049856
 31
0.0
  0
LINE
  5
1FD
330
1F
100
AcDbEntity
  8
0
  6
Continuous
 62
     7
370
    25
100
AcDbLine
 10
235.093805232
 20
52.3939049856
 30
0.0
 11
244.593805232
 21
52.3939049856
 31
0.0
  0
LINE
  5
1FE
330
1F
100
AcDbEntity
  8
0
  6
Continuous
 62
     7
370
    25
100
AcDbLine
 10
235.093805232
 20
53.5939049856
 30
0.0
 11
244.593805232
 21
53.5939049856
 31
0.0
  0
LINE
  5
1FF
330
1F
100
AcDbEntity
  8
0
  6
Continuous
 62
     7
370
    25
100
AcDbLine
 10
231.093805232
 20
52.3939049856
 30
0.0
 11
231.093805232
 21
53.5939049856
 31
0.0
  0
LINE
  5
200
330
1F
100
AcDbEntity
  8
0
  6
Continuous
 62
     7
370
    25
100
AcDbLine
 10
231.093805232
 20
52.3939049856
 30
0.0
 11
235.093805232
 21
52.3939049856
 31
0.0
  0
LINE
  5
201
330
1F
100
AcDbEntity
  8
0
  6
Continuous
 62
     7
370
    25
100
AcDbLine
 10
231.093805232
 20
53.5939049856
 30
0.0
 11
235.093805232
 21
53.5939049856
 31
0.0
  0
LINE
  5
202
330
1F
100
AcDbEntity
  8
0
  6
Continuous
 62
     7
370
    25
100
AcDbLine
 10
196.093805232
 20
52.3939049856
 30
0.0
 11
196.093805232
 21
53.5939049856
 31
0.0
  0
LINE
  5
203
330
1F
100
AcDbEntity
  8
0
  6
Continuous
 62
     7
370
    25
100
AcDbLine
 10
192.093805232
 20
52.3939049856
 30
0.0
 11
196.093805232
 21
52.3939049856
 31
0.0
  0
LINE
  5
204
330
1F
100
AcDbEntity
  8
0
  6
Continuous
 62
     7
370
    25
100
AcDbLine
 10
192.093805232
 20
53.5939049856
 30
0.0
 11
196.093805232
 21
53.5939049856
 31
0.0
  0
LINE
  5
205
330
1F
100
AcDbEntity
  8
0
  6
Continuous
 62
     7
370
    25
100
AcDbLine
 10
182.593805232
 20
52.3939049856
 30
0.0
 11
192.093805232
 21
52.3939049856
 31
0.0
  0
LINE
  5
206
330
1F
100
AcDbEntity
  8
0
  6
Continuous
 62
     7
370
    25
100
AcDbLine
 10
182.593805232
 20
53.5939049856
 30
0.0
 11
192.093805232
 21
53.5939049856
 31
0.0
  0
LINE
  5
207
330
1F
100
AcDbEntity
  8
0
  6
Continuous
 62
     7
370
    25
100
AcDbLine
 10
178.593805232
 20
52.3939049856
 30
0.0
 11
178.593805232
 21
53.5939049856
 31
0.0
  0
LINE
  5
208
330
1F
100
AcDbEntity
  8
0
  6
Continuous
 62
     7
370
    25
100
AcDbLine
 10
178.593805232
 20
52.3939049856
 30
0.0
 11
182.593805232
 21
52.3939049856
 31
0.0
  0
LINE
  5
209
330
1F
100
AcDbEntity
  8
0
  6
Continuous
 62
     7
370
    25
100
AcDbLine
 10
178.593805232
 20
53.5939049856
 30
0.0
 11
182.593805232
 21
53.5939049856
 31
0.0
  0
CIRCLE
  5
20A
330
1F
100
AcDbEntity
  8
0
  6
Continuous
 62
     7
370
    25
100
AcDbCircle
 10
204.593805232
 20
66.2939049856
 30
0.0
 40
1.599999999999994
  0
CIRCLE
  5
20B
330
1F
100
AcDbEntity
  8
0
  6
Continuous
 62
     7
370
    25
100
AcDbCircle
 10
222.593805232
 20
66.2939049856
 30
0.0
 40
1.599999999999994
  0
ARC
  5
20C
330
1F
100
AcDbEntity
  8
0
  6
Continuous
 62
     7
370
    25
100
AcDbCircle
 10
204.593805232
 20
71.2939049856
 30
0.0
 40
1.600000000000023
100
AcDbArc
 50
180.0
 51
0.0
  0
LINE
  5
20D
330
1F
100
AcDbEntity
  8
0
  6
Continuous
 62
     7
370
    25
100
AcDbLine
 10
206.193805232
 20
71.2939049856
 30
0.0
 11
206.193805232
 21
76.5939049856
 31
0.0
  0
ARC
  5
20E
330
1F
100
AcDbEntity
  8
0
  6
Continuous
 62
     7
370
    25
100
AcDbCircle
 10
207.193805232
 20
76.5939049856
 30
0.0
 40
1.0
100
AcDbArc
 50
90.0
 51
180.0
  0
LINE
  5
20F
330
1F
100
AcDbEntity
  8
0
  6
Continuous
 62
     7
370
    25
100
AcDbLine
 10
219.993805232
 20
77.5939049856
 30
0.0
 11
207.193805232
 21
77.5939049856
 31
0.0
  0
ARC
  5
210
330
1F
100
AcDbEntity
  8
0
  6
Continuous
 62
     7
370
    25
100
AcDbCircle
 10
219.993805232
 20
76.5939049856
 30
0.0
 40
1.0
100
AcDbArc
 50
0.0
 51
90.0
  0
LINE
  5
211
330
1F
100
AcDbEntity
  8
0
  6
Continuous
 62
     7
370
    25
100
AcDbLine
 10
220.993805232
 20
76.5939049856
 30
0.0
 11
220.993805232
 21
71.2939049856
 31
0.0
  0
ARC
  5
212
330
1F
100
AcDbEntity
  8
0
  6
Continuous
 62
     7
370
    25
100
AcDbCircle
 10
222.593805232
 20
71.2939049856
 30
0.0
 40
1.599999999999994
100
AcDbArc
 50
180.0
 51
0.0
  0
LINE
  5
213
330
1F
100
AcDbEntity
  8
0
  6
Continuous
 62
     7
370
    25
100
AcDbLine
 10
224.193805232
 20
71.2939049856
 30
0.0
 11
224.193805232
 21
76.5939049856
 31
0.0
  0
ARC
  5
214
330
1F
100
AcDbEntity
  8
0
  6
Continuous
 62
     7
370
    25
100
AcDbCircle
 10
225.193805232
 20
76.5939049856
 30
0.0
 40
1.0
100
AcDbArc
 50
90.0
 51
180.0
  0
LINE
  5
215
330
1F
100
AcDbEntity
  8
0
  6
Continuous
 62
     7
370
    25
100
AcDbLine
 10
226.093805232
 20
77.5939049856
 30
0.0
 11
225.193805232
 21
77.5939049856
 31
0.0
  0
ARC
  5
216
330
1F
100
AcDbEntity
  8
0
  6
Continuous
 62
     7
370
    25
100
AcDbCircle
 10
226.093805232
 20
73.5939049856
 30
0.0
 40
4.000000000000014
100
AcDbArc
 50
0.0
 51
90.0
  0
LINE
  5
217
330
1F
100
AcDbEntity
  8
0
  6
Continuous
 62
     7
370
    25
100
AcDbLine
 10
230.093805232
 20
54.3305049856
 30
0.0
 11
230.093805232
 21
73.5939049856
 31
0.0
  0
LINE
  5
218
330
1F
100
AcDbEntity
  8
0
  6
Continuous
 62
     7
370
    25
100
AcDbLine
 10
197.093805232
 20
73.5939049856
 30
0.0
 11
197.093805232
 21
54.3305049856
 31
0.0
  0
ARC
  5
219
330
1F
100
AcDbEntity
  8
0
  6
Continuous
 62
     7
370
    25
100
AcDbCircle
 10
201.093805232
 20
73.5939049856
 30
0.0
 40
4.000000000000014
100
AcDbArc
 50
90.0
 51
180.0
  0
LINE
  5
21A
330
1F
100
AcDbEntity
  8
0
  6
Continuous
 62
     7
370
    25
100
AcDbLine
 10
201.993805232
 20
77.5939049856
 30
0.0
 11
201.093805232
 21
77.5939049856
 31
0.0
  0
ARC
  5
21B
330
1F
100
AcDbEntity
  8
0
  6
Continuous
 62
     7
370
    25
100
AcDbCircle
 10
201.993805232
 20
76.5939049856
 30
0.0
 40
1.0
100
AcDbArc
 50
0.0
 51
90.0
  0
LINE
  5
21C
330
1F
100
AcDbEntity
  8
0
  6
Continuous
 62
     7
370
    25
100
AcDbLine
 10
202.993805232
 20
76.5939049856
 30
0.0
 11
202.993805232
 21
71.2939049856
 31
0.0
  0
LINE
  5
21D
330
1F
100
AcDbEntity
  8
0
  6
Continuous
 62
     7
370
    25
100
AcDbLine
 10
197.093805232
 20
52.3939049856
 30
0.0
 11
197.093805232
 21
54.3305049856
 31
0.0
  0
LINE
  5
21E
330
1F
100
AcDbEntity
  8
0
  6
Continuous
 62
     7
370
    25
100
AcDbLine
 10
230.093805232
 20
54.3305049856
 30
0.0
 11
230.093805232
 21
52.3939049856
 31
0.0
  0
LINE
  5
21F
330
1F
100
AcDbEntity
  8
0
  6
Continuous
 62
     7
370
    25
100
AcDbLine
 10
197.093805232
 20
52.3939049856
 30
0.0
 11
230.093805232
 21
52.3939049856
 31
0.0
  0
LINE
  5
220
330
1F
100
AcDbEntity
  8
0
  6
Continuous
 62
     7
370
    25
100
AcDbLine
 10
230.093805232
 20
52.3939049856
 30
0.0
 11
231.093805232
 21
52.3939049856
 31
0.0
  0
LINE
  5
221
330
1F
100
AcDbEntity
  8
0
  6
Continuous
 62
     7
370
    25
100
AcDbLine
 10
230.093805232
 20
53.5939049856
 30
0.0
 11
231.093805232
 21
53.5939049856
 31
0.0
  0
LINE
  5
222
330
1F
100
AcDbEntity
  8
0
  6
Continuous
 62
     7
370
    25
100
AcDbLine
 10
196.093805232
 20
52.3939049856
 30
0.0
 11
197.093805232
 21
52.3939049856
 31
0.0
  0
LINE
  5
223
330
1F
100
AcDbEntity
  8
0
  6
Continuous
 62
     7
370
    25
100
AcDbLine
 10
196.093805232
 20
53.5939049856
 30
0.0
 11
197.093805232
 21
53.5939049856
 31
0.0
  0
DIMENSION
  5
224
330
1F
100
AcDbEntity
  8
0
  6
Continuous
 62
     7
370
    18
100
AcDbDimension
  2
_D_7
 10
230.093805232
 20
99.5939049856
 30
0.0
 11
213.593805232
 21
99.5939049856
 31
0.0
 70
   160
  1
<>
 71
     2
 42
-1.0
  3
SLDDIMSTYLE2
100
AcDbAlignedDimension
 13
197.093805232
 23
73.5939049856
 33
0.0
 14
230.093805232
 24
73.5939049856
 34
0.0
100
AcDbRotatedDimension
  0
DIMENSION
  5
22E
330
1F
100
AcDbEntity
  8
0
  6
Continuous
 62
     7
370
    18
100
AcDbDimension
  2
_D_8
 10
201.093805232
 20
73.5939049856
 30
0.0
 11
189.2839874148
 21
80.4123222549
 31
0.0
 70
   164
  1
<>
 71
     1
 42
-1.0
  3
SLDDIMSTYLE5
100
AcDbRadialDimension
 15
197.6297036168
 25
75.5939049856
 35
0.0
 40
0.0
  0
DIMENSION
  5
236
330
1F
100
AcDbEntity
  8
0
  6
Continuous
 62
     7
370
    18
100
AcDbDimension
  2
_D_9
 10
224.193805232
 20
82.9003966902
 30
0.0
 11
217.3147348461
 21
82.9003966902
 31
0.0
 70
   160
  1
<>
 71
     2
 42
-1.0
  3
SLDDIMSTYLE6
100
AcDbAlignedDimension
 13
220.993805232
 23
76.5939049856
 33
0.0
 14
224.193805232
 24
76.5939049856
 34
0.0
100
AcDbRotatedDimension
  0
DIMENSION
  5
243
330
1F
100
AcDbEntity
  8
0
  6
Continuous
 62
     7
370
    18
100
AcDbDimension
  2
_D_10
 10
207.193805232
 20
76.5939049856
 30
0.0
 11
199.3617524622
 21
81.115758534
 31
0.0
 70
   164
  1
<>
 71
     1
 42
-1.0
  3
SLDDIMSTYLE5
100
AcDbRadialDimension
 15
206.3277798282
 25
77.0939049856
 35
0.0
 40
0.0
  0
DIMENSION
  5
24A
330
1F
100
AcDbEntity
  8
0
  6
Continuous
 62
     7
370
    18
100
AcDbDimension
  2
_D_11
 10
222.593805232
 20
90.8333193284
 30
0.0
 11
213.593805232
 21
90.8333193284
 31
0.0
 70
   160
  1
<>
 71
     2
 42
-1.0
  3
SLDDIMSTYLE2
100
AcDbAlignedDimension
 13
204.593805232
 23
70.3939049856
 33
0.0
 14
222.593805232
 24
70.3939049856
 34
0.0
100
AcDbRotatedDimension
  0
DIMENSION
  5
254
330
1F
100
AcDbEntity
  8
0
  6
Continuous
 62
     7
370
    18
100
AcDbDimension
  2
_D_12
 10
171.5569637889
 20
53.5939049856
 30
0.0
 11
171.5569637889
 21
59.9439049856
 31
0.0
 70
   160
  1
<>
 71
     2
 42
-1.0
  3
SLDDIMSTYLE7
100
AcDbAlignedDimension
 13
200.493805232
 23
66.2939049856
 33
0.0
 14
178.593805232
 24
53.5939049856
 34
0.0
 50
90.0
100
AcDbRotatedDimension
  0
DIMENSION
  5
261
330
1F
100
AcDbEntity
  8
0
  6
Continuous
 62
     7
370
    18
100
AcDbDimension
  2
_D_13
 10
182.700374314
 20
66.2939049856
 30
0.0
 11
182.700374314
 21
68.7939049856
 31
0.0
 70
   160
  1
<>
 71
     2
 42
-1.0
  3
SLDDIMSTYLE1
100
AcDbAlignedDimension
 13
204.593805232
 23
71.2939049856
 33
0.0
 14
200.493805232
 24
66.2939049856
 34
0.0
 50
90.0
100
AcDbRotatedDimension
  0
INSERT
  5
277
330
1F
100
AcDbEntity
  8
0
  6
Continuous
 62
     7
370
     0
100
AcDbBlockReference
  2
SW_NOTE_0_1
 10
236.2328767123
 20
74.5978219178
 30
0.0
  0
LEADER
  5
278
330
1F
100
AcDbEntity
  8
0
  6
Continuous
 62
     7
370
     0
100
AcDbLeader
  3
SLDDIMSTYLE4
 76
     2
 10
223.878751001
 20
67.2472749928
 30
0.0
 10
236.2328767123
 20
74.5978219178
 30
0.0
  0
INSERT
  5
284
330
1F
100
AcDbEntity
  8
0
  6
Continuous
 62
     7
370
     0
100
AcDbBlockReference
  2
SW_CENTERMARKSYMBOL_0
 10
222.593805232
 20
66.2939049856
 30
0.0
  0
INSERT
  5
290
330
1F
100
AcDbEntity
  8
0
  6
Continuous
 62
     7
370
     0
100
AcDbBlockReference
  2
SW_CENTERMARKSYMBOL_1
 10
204.593805232
 20
66.2939049856
 30
0.0
  0
LINE
  5
291
330
1F
100
AcDbEntity
  8
0
  6
Continuous
 62
     7
370
    25
100
AcDbLine
 10
221.6927177791
 20
152.2244757037
 30
0.0
 11
220.8441896417
 21
152.7143205708
 31
0.0
  0
LINE
  5
292
330
1F
100
AcDbEntity
  8
0
  6
Continuous
 62
     7
370
    25
100
AcDbLine
 10
225.2976930592
 20
123.4551214047
 30
0.0
 11
225.2976930592
 21
124.434970379
 31
0.0
  0
LINE
  5
293
330
1F
100
AcDbEntity
  8
0
  6
Continuous
 62
     7
370
    25
100
AcDbLine
 10
234.4206398405
 20
159.5721487101
 30
0.0
 11
233.5721117031
 21
160.0619935772
 31
0.0
  0
LINE
  5
294
330
1F
100
AcDbEntity
  8
0
  6
Continuous
 62
     7
370
    25
100
AcDbLine
 10
217.3267735014
 20
130.2925900038
 30
0.0
 11
240.6612972805
 21
143.7633238489
 31
0.0
  0
LINE
  5
295
330
1F
100
AcDbEntity
  8
0
  6
Continuous
 62
     7
370
    25
100
AcDbLine
 10
240.2338693047
 20
162.2107176026
 30
0.0
 11
239.3853411673
 21
162.7005624697
 31
0.0
  0
LINE
  5
296
330
1F
100
AcDbEntity
  8
0
  6
Continuous
 62
     7
370
    25
100
AcDbLine
 10
192.9112090432
 20
168.8396870322
 30
0.0
 11
192.0626809057
 21
169.3295318993
 31
0.0
  0
LINE
  5
297
330
1F
100
AcDbEntity
  8
0
  6
Continuous
 62
     7
370
    25
100
AcDbLine
 10
262.4207990714
 20
144.8858343401
 30
0.0
 11
262.4207990714
 21
145.8656833143
 31
0.0
  0
LINE
  5
298
330
1F
100
AcDbEntity
  8
0
  6
Continuous
 62
     7
370
    25
100
AcDbLine
 10
166.7395582043
 20
145.8656833143
 30
0.0
 11
166.7395582043
 21
144.8858343401
 31
0.0
  0
LINE
  5
299
330
1F
100
AcDbEntity
  8
0
  6
Continuous
 62
     7
370
    25
100
AcDbLine
 10
205.6391311045
 20
176.1873600386
 30
0.0
 11
204.7906029671
 21
176.6772049057
 31
0.0
  0
LINE
  5
29A
330
1F
100
AcDbEntity
  8
0
  6
Continuous
 62
     7
370
    25
100
AcDbLine
 10
211.4523605687
 20
178.8259289312
 30
0.0
 11
210.6038324313
 21
179.3157737983
 31
0.0
  0
LINE
  5
29B
330
1F
100
AcDbEntity
  8
0
  6
Continuous
 62
     7
370
    25
100
AcDbLine
 10
212.8018050832
 20
160.36305036
 30
0.0
 11
189.467281304
 21
146.8923165149
 31
0.0
  0
LWPOLYLINE
  5
29C
330
1F
100
AcDbEntity
  8
0
  6
Continuous
 62
     7
370
    25
100
AcDbPolyline
 90
       18
 70
   128
 43
0.0
 10
212.8018050832
 20
161.1794584718
 10
213.0223073858
 20
161.275585887
 10
213.2799613144
 20
161.3332082432
 10
213.555095323
 20
161.3479261475
 10
213.826703284
 20
161.3186159069
 10
214.0740482788
 20
161.2475153205
 10
214.2782458354
 20
161.1400528267
 10
214.4237057329
 20
161.0044330487
 10
214.4993222953
 20
160.851010382
 10
214.4993222953
 20
160.6914984499
 10
214.4237057329
 20
160.5380757832
 10
214.2782458354
 20
160.4024560051
 10
214.0740482788
 20
160.2949935113
 10
213.826703284
 20
160.223892925
 10
213.555095323
 20
160.1945826844
 10
213.2799613144
 20
160.2093005887
 10
213.0223073858
 20
160.2669229448
 10
212.8018050832
 20
160.36305036
  0
LINE
  5
29D
330
1F
100
AcDbEntity
  8
0
  6
Continuous
 62
     7
370
    25
100
AcDbLine
 10
212.2809502282
 20
161.4801415794
 30
0.0
 11
212.8018050832
 21
161.1794584718
 31
0.0
  0
ARC
  5
29E
330
1F
100
AcDbEntity
  8
0
  6
Continuous
 62
     7
370
    25
100
AcDbCircle
 10
214.5614550338
 20
167.2768644797
 30
0.0
 40
6.220155650686015
100
AcDbArc
 50
62.7592862938
 51
111.5080206531
  0
LINE
  5
29F
330
1F
100
AcDbEntity
  8
0
  6
Continuous
 62
     7
370
    25
100
AcDbLine
 10
261.2492261962
 20
147.498499538
 30
0.0
 11
241.0624589642
 21
159.1520722077
 31
0.0
  0
LINE
  5
2A0
330
1F
100
AcDbEntity
  8
0
  6
Continuous
 62
     7
370
    25
100
AcDbLine
 10
236.4091711823
 20
161.838358065
 30
0.0
 11
217.4086057626
 21
172.8071510045
 31
0.0
  0
ARC
  5
2A1
330
1F
100
AcDbEntity
  8
0
  6
Continuous
 62
     7
370
    25
100
AcDbCircle
 10
260.6136593773
 20
145.8656833143
 30
0.0
 40
1.752151249616968
100
AcDbArc
 50
291.2682653033
 51
68.7317346967
  0
LINE
  5
2A2
330
1F
100
AcDbEntity
  8
0
  6
Continuous
 62
     7
370
    25
100
AcDbLine
 10
254.5317117749
 20
140.3549285595
 30
0.0
 11
261.2492261962
 21
144.2328670907
 31
0.0
  0
ARC
  5
2A3
330
1F
100
AcDbEntity
  8
0
  6
Continuous
 62
     7
370
    25
100
AcDbCircle
 10
251.7032846502
 20
145.7863018283
 30
0.0
 40
6.123709299497317
100
AcDbArc
 50
242.4914255688
 51
297.5085744312
  0
LINE
  5
2A4
330
1F
100
AcDbEntity
  8
0
  6
Continuous
 62
     7
370
    25
100
AcDbLine
 10
241.1072895341
 20
144.8390501137
 30
0.0
 11
248.8748575254
 21
140.3549285595
 31
0.0
  0
LWPOLYLINE
  5
2A5
330
1F
100
AcDbEntity
  8
0
  6
Continuous
 62
     7
370
    25
100
AcDbPolyline
 90
        7
 70
   128
 43
0.0
 10
241.0624589642
 20
145.6797926346
 10
241.2251802275
 20
145.5735004773
 10
241.3483434005
 20
145.4307112511
 10
241.3991157277
 20
145.2739153128
 10
241.3736208073
 20
145.1150838305
 10
241.2738051436
 20
144.9663433835
 10
241.1072895341
 20
144.8390501137
  0
LINE
  5
2A6
330
1F
100
AcDbEntity
  8
0
  6
Continuous
 62
     7
370
    25
100
AcDbLine
 10
216.3585521926
 20
131.3683162686
 30
0.0
 11
216.8794070407
 21
131.6689993722
 31
0.0
  0
LWPOLYLINE
  5
2A7
330
1F
100
AcDbEntity
  8
0
  6
Continuous
 62
     7
370
    25
100
AcDbPolyline
 90
       18
 70
   128
 43
0.0
 10
216.3585521926
 20
130.5519081568
 10
216.1380498899
 20
130.4557807416
 10
215.8803959613
 20
130.3981583855
 10
215.6052619527
 20
130.3834404812
 10
215.3336539918
 20
130.4127507218
 10
215.086308997
 20
130.4838513081
 10
214.8821114404
 20
130.5913138019
 10
214.7366515429
 20
130.72693358
 10
214.6610349805
 20
130.8803562467
 10
214.6610349805
 20
131.0398681788
 10
214.7366515429
 20
131.1932908455
 10
214.8821114404
 20
131.3289106235
 10
215.086308997
 20
131.4363731173
 10
215.3336539918
 20
131.5074737037
 10
215.6052619527
 20
131.5367839443
 10
215.8803959613
 20
131.52206604
 10
216.1380498899
 20
131.4644436838
 10
216.3585521926
 20
131.3683162686
  0
LINE
  5
2A8
330
1F
100
AcDbEntity
  8
0
  6
Continuous
 62
     7
370
    25
100
AcDbLine
 10
224.1261201839
 20
126.0677866026
 30
0.0
 11
216.3585521926
 21
130.5519081568
 31
0.0
  0
ARC
  5
2A9
330
1F
100
AcDbEntity
  8
0
  6
Continuous
 62
     7
370
    25
100
AcDbCircle
 10
223.490553365
 20
124.434970379
 30
0.0
 40
1.752151249616981
100
AcDbArc
 50
291.2682653033
 51
68.7317346967
  0
LINE
  5
2AA
330
1F
100
AcDbEntity
  8
0
  6
Continuous
 62
     7
370
    25
100
AcDbLine
 10
217.4086057626
 20
118.9242156242
 30
0.0
 11
224.1261201839
 21
122.8021541553
 31
0.0
  0
ARC
  5
2AB
330
1F
100
AcDbEntity
  8
0
  6
Continuous
 62
     7
370
    25
100
AcDbCircle
 10
214.5801786379
 20
124.3555888929
 30
0.0
 40
6.123709299497127
100
AcDbArc
 50
242.4914255688
 51
297.5085744312
  0
LINE
  5
2AC
330
1F
100
AcDbEntity
  8
0
  6
Continuous
 62
     7
370
    25
100
AcDbLine
 10
167.9111310796
 20
144.2328670907
 30
0.0
 11
211.7517515131
 21
118.9242156242
 31
0.0
  0
ARC
  5
2AD
330
1F
100
AcDbEntity
  8
0
  6
Continuous
 62
     7
370
    25
100
AcDbCircle
 10
168.5466978985
 20
145.8656833143
 30
0.0
 40
1.752151249616958
100
AcDbArc
 50
111.2682653033
 51
248.7317346967
  0
LINE
  5
2AE
330
1F
100
AcDbEntity
  8
0
  6
Continuous
 62
     7
370
    25
100
AcDbLine
 10
174.6286455008
 20
151.3764380691
 30
0.0
 11
167.9111310796
 21
147.498499538
 31
0.0
  0
ARC
  5
2AF
330
1F
100
AcDbEntity
  8
0
  6
Continuous
 62
     7
370
    25
100
AcDbCircle
 10
177.4570726256
 20
145.9450648004
 30
0.0
 40
6.123709299497179
100
AcDbArc
 50
62.4914255688
 51
117.5085744312
  0
LINE
  5
2B0
330
1F
100
AcDbEntity
  8
0
  6
Continuous
 62
     7
370
    25
100
AcDbLine
 10
188.0530677417
 20
146.8923165149
 30
0.0
 11
180.2854997503
 21
151.3764380691
 31
0.0
  0
LWPOLYLINE
  5
2B1
330
1F
100
AcDbEntity
  8
0
  6
Continuous
 62
     7
370
    25
100
AcDbPolyline
 90
       18
 70
   128
 43
0.0
 10
189.467281304
 20
146.8923165149
 10
189.6337969135
 20
146.7650232451
 10
189.7336125772
 20
146.6162827982
 10
189.7591074977
 20
146.4574513158
 10
189.7083351704
 20
146.3006553775
 10
189.5851719975
 20
146.1578661513
 10
189.3990213285
 20
146.0399854111
 10
189.1640955277
 20
145.9560131997
 10
188.8983308778
 20
145.9123606874
 10
188.6220181679
 20
145.9123606874
 10
188.356253518
 20
145.9560131997
 10
188.1213277172
 20
146.0399854111
 10
187.9351770483
 20
146.1578661513
 10
187.8120138753
 20
146.3006553775
 10
187.7612415481
 20
146.4574513158
 10
187.7867364685
 20
146.6162827982
 10
187.8865521322
 20
146.7650232451
 10
188.0530677417
 20
146.8923165149
  0
LINE
  5
2B2
330
1F
100
AcDbEntity
  8
0
  6
Continuous
 62
     7
370
    25
100
AcDbLine
 10
213.3780971099
 20
171.0518735641
 30
0.0
 11
212.2809502282
 21
170.4185041509
 31
0.0
  0
LINE
  5
2B3
330
1F
100
AcDbEntity
  8
0
  6
Continuous
 62
     7
370
    25
100
AcDbLine
 10
212.2809502282
 20
167.6427165707
 30
0.0
 11
215.7822601659
 21
169.663979774
 31
0.0
  0
LWPOLYLINE
  5
2B4
330
1F
100
AcDbEntity
  8
0
  6
Continuous
 62
     7
370
    25
100
AcDbPolyline
 90
       16
 70
   128
 43
0.0
 10
215.7822601659
 20
169.663979774
 10
216.0059186034
 20
169.8234238509
 10
216.1672653629
 20
170.0062282657
 10
216.2592488169
 20
170.2044035885
 10
216.277848847
 20
170.4092886065
 10
216.2222525426
 20
170.6119288615
 10
216.094889729
 20
170.8034680017
 10
215.9013267724
 20
170.9755348478
 10
215.6500233027
 20
171.1206092529
 10
215.3519624874
 20
171.2323507693
 10
215.0201710146
 20
171.3058757565
 10
214.6691497635
 20
171.3379708199
 10
214.3142400473
 20
171.3272332511
 10
213.9709531237
 20
171.2741323334
 10
213.6542922784
 20
171.1809888317
 10
213.3780971099
 20
171.0518735641
  0
LINE
  5
2B5
330
1F
100
AcDbEntity
  8
0
  6
Continuous
 62
     7
370
    25
100
AcDbLine
 10
255.8045039811
 20
146.5596302094
 30
0.0
 11
250.8547565128
 21
143.702201818
 31
0.0
  0
LWPOLYLINE
  5
2B6
330
1F
100
AcDbEntity
  8
0
  6
Continuous
 62
     7
370
    25
100
AcDbPolyline
 90
       16
 70
   128
 43
0.0
 10
250.8547565128
 20
143.702201818
 10
250.6310980753
 20
143.5427577411
 10
250.4697513157
 20
143.3599533262
 10
250.3777678618
 20
143.1617780034
 10
250.3591678317
 20
142.9568929854
 10
250.4147641361
 20
142.7542527305
 10
250.5421269496
 20
142.5627135902
 10
250.7356899063
 20
142.3906467441
 10
250.986993376
 20
142.2455723391
 10
251.2850541912
 20
142.1338308227
 10
251.6168456641
 20
142.0603058354
 10
251.9678669152
 20
142.0282107721
 10
252.3227766313
 20
142.0389483409
 10
252.666063555
 20
142.0920492586
 10
252.9827244003
 20
142.1851927602
 10
253.2589195688
 20
142.3143080279
  0
LINE
  5
2B7
330
1F
100
AcDbEntity
  8
0
  6
Continuous
 62
     7
370
    25
100
AcDbLine
 10
253.2589195688
 20
142.3143080279
 30
0.0
 11
258.2086670371
 21
145.1717364193
 31
0.0
  0
LWPOLYLINE
  5
2B8
330
1F
100
AcDbEntity
  8
0
  6
Continuous
 62
     7
370
    25
100
AcDbPolyline
 90
       16
 70
   128
 43
0.0
 10
258.2086670371
 20
145.1717364193
 10
258.4323254746
 20
145.3311804962
 10
258.5936722341
 20
145.5139849111
 10
258.6856556881
 20
145.7121602338
 10
258.7042557182
 20
145.9170452519
 10
258.6486594138
 20
146.1196855068
 10
258.5212966002
 20
146.3112246471
 10
258.3277336436
 20
146.4832914931
 10
258.0764301739
 20
146.6283658982
 10
257.7783693586
 20
146.7401074146
 10
257.4465778857
 20
146.8136324018
 10
257.0955566347
 20
146.8457274652
 10
256.7406469185
 20
146.8349898964
 10
256.3973599948
 20
146.7818889787
 10
256.0806991495
 20
146.688745477
 10
255.8045039811
 20
146.5596302094
  0
LINE
  5
2B9
330
1F
100
AcDbEntity
  8
0
  6
Continuous
 62
     7
370
    25
100
AcDbLine
 10
215.7822601659
 20
120.6794930646
 30
0.0
 11
220.7320076342
 21
123.536921456
 31
0.0
  0
LWPOLYLINE
  5
2BA
330
1F
100
AcDbEntity
  8
0
  6
Continuous
 62
     7
370
    25
100
AcDbPolyline
 90
       16
 70
   128
 43
0.0
 10
220.7320076342
 20
123.536921456
 10
220.9556660717
 20
123.6963655329
 10
221.1170128312
 20
123.8791699478
 10
221.2089962852
 20
124.0773452705
 10
221.2275963153
 20
124.2822302886
 10
221.1720000109
 20
124.4848705435
 10
221.0446371973
 20
124.6764096838
 10
220.8510742407
 20
124.8484765298
 10
220.599770771
 20
124.9935509349
 10
220.3017099557
 20
125.1052924513
 10
219.9699184829
 20
125.1788174385
 10
219.6188972318
 20
125.2109125019
 10
219.2639875156
 20
125.2001749331
 10
218.920700592
 20
125.1470740154
 10
218.6040397467
 20
125.0539305137
 10
218.3278445782
 20
124.9248152461
  0
LINE
  5
2BB
330
1F
100
AcDbEntity
  8
0
  6
Continuous
 62
     7
370
    25
100
AcDbLine
 10
218.3278445782
 20
124.9248152461
 30
0.0
 11
213.3780971099
 21
122.0673868547
 31
0.0
  0
LWPOLYLINE
  5
2BC
330
1F
100
AcDbEntity
  8
0
  6
Continuous
 62
     7
370
    25
100
AcDbPolyline
 90
       16
 70
   128
 43
0.0
 10
213.3780971099
 20
122.0673868547
 10
213.1544386724
 20
121.9079427778
 10
212.9930919128
 20
121.7251383629
 10
212.9011084589
 20
121.5269630401
 10
212.8825084288
 20
121.3220780221
 10
212.9381047332
 20
121.1194377672
 10
213.0654675468
 20
120.9278986269
 10
213.2590305034
 20
120.7558317808
 10
213.5103339731
 20
120.6107573758
 10
213.8083947883
 20
120.4990158594
 10
214.1401862612
 20
120.4254908721
 10
214.4912075123
 20
120.3933958088
 10
214.8461172285
 20
120.4041333776
 10
215.1894041521
 20
120.4572342953
 10
215.5060649974
 20
120.5503777969
 10
215.7822601659
 20
120.6794930646
  0
LINE
  5
2BD
330
1F
100
AcDbEntity
  8
0
  6
Continuous
 62
     7
370
    25
100
AcDbLine
 10
173.3558532947
 20
145.1717364193
 30
0.0
 11
178.305600763
 21
148.0291648107
 31
0.0
  0
LWPOLYLINE
  5
2BE
330
1F
100
AcDbEntity
  8
0
  6
Continuous
 62
     7
370
    25
100
AcDbPolyline
 90
       16
 70
   128
 43
0.0
 10
178.305600763
 20
148.0291648107
 10
178.5292592005
 20
148.1886088876
 10
178.69060596
 20
148.3714133024
 10
178.782589414
 20
148.5695886252
 10
178.8011894441
 20
148.7744736432
 10
178.7455931397
 20
148.9771138982
 10
178.6182303261
 20
149.1686530384
 10
178.4246673695
 20
149.3407198845
 10
178.1733638998
 20
149.4857942896
 10
177.8753030846
 20
149.597535806
 10
177.5435116117
 20
149.6710607932
 10
177.1924903606
 20
149.7031558566
 10
176.8375806444
 20
149.6924182878
 10
176.4942937208
 20
149.6393173701
 10
176.1776328755
 20
149.5461738684
 10
175.901437707
 20
149.4170586007
  0
LINE
  5
2BF
330
1F
100
AcDbEntity
  8
0
  6
Continuous
 62
     7
370
    25
100
AcDbLine
 10
175.901437707
 20
149.4170586007
 30
0.0
 11
170.9516902387
 21
146.5596302094
 31
0.0
  0
LWPOLYLINE
  5
2C0
330
1F
100
AcDbEntity
  8
0
  6
Continuous
 62
     7
370
    25
100
AcDbPolyline
 90
       16
 70
   128
 43
0.0
 10
170.9516902387
 20
146.5596302094
 10
170.7280318012
 20
146.4001861325
 10
170.5666850416
 20
146.2173817176
 10
170.4747015877
 20
146.0192063948
 10
170.4561015576
 20
145.8143213768
 10
170.511697862
 20
145.6116811219
 10
170.6390606756
 20
145.4201419816
 10
170.8326236322
 20
145.2480751355
 10
171.0839271019
 20
145.1030007304
 10
171.3819879171
 20
144.9912592141
 10
171.71377939
 20
144.9177342268
 10
172.0648006411
 20
144.8856391634
 10
172.4197103573
 20
144.8963767322
 10
172.7629972809
 20
144.9494776499
 10
173.0796581262
 20
145.0426211516
 10
173.3558532947
 20
145.1717364193
  0
LINE
  5
2C1
330
1F
100
AcDbEntity
  8
0
  6
Continuous
 62
     7
370
    25
100
AcDbLine
 10
217.4086057626
 20
117.9443666499
 30
0.0
 11
217.4086057626
 21
118.9242156242
 31
0.0
  0
ARC
  5
2C2
330
1F
100
AcDbEntity
  8
0
  6
Continuous
 62
     7
370
    25
100
AcDbCircle
 10
214.5801786379
 20
123.3757399187
 30
0.0
 40
6.123709299497103
100
AcDbArc
 50
242.4914255688
 51
297.5085744312
  0
LINE
  5
2C3
330
1F
100
AcDbEntity
  8
0
  6
Continuous
 62
     7
370
    25
100
AcDbLine
 10
211.7517515131
 20
117.9443666499
 30
0.0
 11
211.7517515131
 21
118.9242156242
 31
0.0
  0
LINE
  5
2C4
330
1F
100
AcDbEntity
  8
0
  6
Continuous
 62
     7
370
    25
100
AcDbLine
 10
167.9111310796
 20
143.2530181164
 30
0.0
 11
167.9111310796
 21
144.2328670907
 31
0.0
  0
LINE
  5
2C5
330
1F
100
AcDbEntity
  8
0
  6
Continuous
 62
     7
370
    25
100
AcDbLine
 10
167.9111310796
 20
143.2530181164
 30
0.0
 11
211.7517515131
 21
117.9443666499
 31
0.0
  0
LINE
  5
2C6
330
1F
100
AcDbEntity
  8
0
  6
Continuous
 62
     7
370
    25
100
AcDbLine
 10
224.1261201839
 20
121.8223051811
 30
0.0
 11
224.1261201839
 21
122.8021541553
 31
0.0
  0
LINE
  5
2C7
330
1F
100
AcDbEntity
  8
0
  6
Continuous
 62
     7
370
    25
100
AcDbLine
 10
217.4086057626
 20
117.9443666499
 30
0.0
 11
224.1261201839
 21
121.8223051811
 31
0.0
  0
LINE
  5
2C8
330
1F
100
AcDbEntity
  8
0
  6
Continuous
 62
     7
370
    25
100
AcDbLine
 10
213.3780971099
 20
121.0875378804
 30
0.0
 11
213.3780971099
 21
122.0673868547
 31
0.0
  0
LWPOLYLINE
  5
2C9
330
1F
100
AcDbEntity
  8
0
  6
Continuous
 62
     7
370
    25
100
AcDbPolyline
 90
        3
 70
   128
 43
0.0
 10
213.3780971099
 20
121.0875378804
 10
213.1544386724
 20
120.9280938035
 10
213.1071661052
 20
120.8835154725
  0
LINE
  5
2CA
330
1F
100
AcDbEntity
  8
0
  6
Continuous
 62
     7
370
    25
100
AcDbLine
 10
217.727935185
 20
146.9086045317
 30
0.0
 11
216.8794070476
 21
147.3984493988
 31
0.0
  0
ARC
  5
2CB
330
1F
100
AcDbEntity
  8
0
  6
Continuous
 62
     7
370
    25
100
AcDbCircle
 10
222.9964667499
 20
147.1327496415
 30
0.0
 40
6.122827432078235
100
AcDbArc
 50
122.4871280433
 51
177.512871811
  0
LINE
  5
2CC
330
1F
100
AcDbEntity
  8
0
  6
Continuous
 62
     7
370
    25
100
AcDbLine
 10
219.7078341723
 20
152.2974288699
 30
0.0
 11
220.5563623098
 21
151.8075840029
 31
0.0
  0
ARC
  5
2CD
330
1F
100
AcDbEntity
  8
0
  6
Continuous
 62
     7
370
    25
100
AcDbCircle
 10
223.845038467
 20
146.6428796137
 30
0.0
 40
6.122872062603415
100
AcDbArc
 50
122.4873455707
 51
177.5126542837
  0
LWPOLYLINE
  5
2CE
330
1F
100
AcDbEntity
  8
0
  6
Continuous
 62
     7
370
    25
100
AcDbPolyline
 90
       31
 70
   128
 43
0.0
 10
223.0312360439
 20
145.3158523233
 10
222.7960108176
 20
145.1515102892
 10
222.5710660623
 20
144.9372519879
 10
222.3662329435
 20
144.6824415353
 10
222.1904636511
 20
144.3982153709
 10
222.0514401468
 20
144.096995542
 10
221.9552384248
 20
143.7919468004
 10
221.9060629619
 20
143.49640124
 10
221.9060629619
 20
143.22327562
 10
221.9552384248
 20
142.9845068405
 10
222.0514401468
 20
142.790530243
 10
222.1904636511
 20
142.6498235355
 10
222.3662329435
 20
142.5685362764
 10
222.5710660623
 20
142.5502211089
 10
222.7960108176
 20
142.5956784938
 10
223.0312360439
 20
142.7029217252
 10
223.2664612703
 20
142.8672637593
 10
223.4914060255
 20
143.0815220606
 10
223.6962391444
 20
143.3363325132
 10
223.8720084367
 20
143.6205586775
 10
224.011031941
 20
143.9217785065
 10
224.1072336631
 20
144.226827248
 10
224.1564091259
 20
144.5223728084
 10
224.1564091259
 20
144.7954984285
 10
224.1072336631
 20
145.034267208
 10
224.011031941
 20
145.2282438055
 10
223.8720084367
 20
145.368950513
 10
223.6962391444
 20
145.4502377721
 10
223.4914060255
 20
145.4685529395
 10
223.2664612703
 20
145.4230955547
 10
223.0312360439
 20
145.3158523233
  0
LWPOLYLINE
  5
2CF
330
1F
100
AcDbEntity
  8
0
  6
Continuous
 62
     7
370
    25
100
AcDbPolyline
 90
       31
 70
   128
 43
0.0
 10
235.7591581053
 20
152.6635253297
 10
235.5239328789
 20
152.4991832956
 10
235.2989881237
 20
152.2849249943
 10
235.0941550048
 20
152.0301145417
 10
234.9183857125
 20
151.7458883773
 10
234.7793622082
 20
151.4446685484
 10
234.6831604861
 20
151.1396198068
 10
234.6339850233
 20
150.8440742464
 10
234.6339850233
 20
150.5709486264
 10
234.6831604861
 20
150.3321798469
 10
234.7793622082
 20
150.1382032494
 10
234.9183857125
 20
149.9974965419
 10
235.0941550048
 20
149.9162092828
 10
235.2989881237
 20
149.8978941153
 10
235.5239328789
 20
149.9433515002
 10
235.7591581053
 20
150.0505947316
 10
235.9943833316
 20
150.2149367657
 10
236.2193280868
 20
150.429195067
 10
236.4241612057
 20
150.6840055196
 10
236.5999304981
 20
150.9682316839
 10
236.7389540024
 20
151.2694515129
 10
236.8351557244
 20
151.5745002544
 10
236.8843311873
 20
151.8700458148
 10
236.8843311873
 20
152.1431714349
 10
236.8351557244
 20
152.3819402144
 10
236.7389540024
 20
152.5759168119
 10
236.5999304981
 20
152.7166235194
 10
236.4241612057
 20
152.7979107785
 10
236.2193280868
 20
152.816225946
 10
235.9943833316
 20
152.7707685611
 10
235.7591581053
 20
152.6635253297
  0
LWPOLYLINE
  5
2D0
330
1F
100
AcDbEntity
  8
0
  6
Continuous
 62
     7
370
    25
100
AcDbPolyline
 90
       16
 70
   128
 43
0.0
 10
221.899865194
 20
147.4389645942
 10
221.9245883615
 20
147.1816075657
 10
221.9976773431
 20
146.9640430359
 10
222.1159377994
 20
146.7957796188
 10
222.2742011811
 20
146.6841712331
 10
222.465550619
 20
146.6340957008
 10
222.6816232244
 20
146.647741563
 10
222.9129755876
 20
146.72451243
 10
223.1494965002
 20
146.8610530465
 10
223.3808488635
 20
147.0513959324
 10
223.5969214689
 20
147.2872221903
 10
223.7882709067
 20
147.558225081
 10
223.9465342884
 20
147.8525604777
 10
224.0647947447
 20
148.1573645114
 10
224.1378837263
 20
148.459315783
 10
224.1626068938
 20
148.7452175731
  0
LINE
  5
2D1
330
1F
100
AcDbEntity
  8
0
  6
Continuous
 62
     7
370
    25
100
AcDbLine
 10
224.1626068938
 20
148.7452175731
 30
0.0
 11
224.1626068938
 21
153.0728838761
 31
0.0
  0
ARC
  5
2D2
330
1F
100
AcDbEntity
  8
0
  6
Continuous
 62
     7
370
    25
100
AcDbCircle
 10
225.6978229952
 20
153.0030230239
 30
0.0
 40
1.536804807572204
100
AcDbArc
 50
122.60547834
 51
177.3945215143
  0
LINE
  5
2D3
330
1F
100
AcDbEntity
  8
0
  6
Continuous
 62
     7
370
    25
100
AcDbLine
 10
233.9206804742
 20
159.5226406596
 30
0.0
 11
224.869713675
 21
154.2976287439
 31
0.0
  0
ARC
  5
2D4
330
1F
100
AcDbEntity
  8
0
  6
Continuous
 62
     7
370
    25
100
AcDbCircle
 10
234.1967128879
 20
159.1842311005
 30
0.0
 40
0.4367091974285262
100
AcDbArc
 50
350.7859630095
 51
129.2032852357
  0
LINE
  5
2D5
330
1F
100
AcDbEntity
  8
0
  6
Continuous
 62
     7
370
    25
100
AcDbLine
 10
234.6277872554
 20
159.1143039036
 30
0.0
 11
234.6277872554
 21
154.7866376006
 31
0.0
  0
LWPOLYLINE
  5
2D6
330
1F
100
AcDbEntity
  8
0
  6
Continuous
 62
     7
370
    25
100
AcDbPolyline
 90
       16
 70
   128
 43
0.0
 10
234.6277872554
 20
154.7866376006
 10
234.6525104229
 20
154.5292805721
 10
234.7255994044
 20
154.3117160423
 10
234.8438598608
 20
154.1434526252
 10
235.0021232425
 20
154.0318442395
 10
235.1934726803
 20
153.9817687072
 10
235.4095452857
 20
153.9954145694
 10
235.6408976489
 20
154.0721854364
 10
235.8774185616
 20
154.2087260529
 10
236.1087709248
 20
154.3990689388
 10
236.3248435302
 20
154.6348951967
 10
236.5161929681
 20
154.9058980874
 10
236.6744563498
 20
155.2002334841
 10
236.7927168061
 20
155.5050375178
 10
236.8658057876
 20
155.8069887894
 10
236.8905289552
 20
156.0928905795
  0
LINE
  5
2D7
330
1F
100
AcDbEntity
  8
0
  6
Continuous
 62
     7
370
    25
100
AcDbLine
 10
236.8905289552
 20
156.0928905795
 30
0.0
 11
236.8905289552
 21
160.4205568825
 31
0.0
  0
ARC
  5
2D8
330
1F
100
AcDbEntity
  8
0
  6
Continuous
 62
     7
370
    25
100
AcDbCircle
 10
238.4257450565
 20
160.3506960303
 30
0.0
 40
1.536804807571883
100
AcDbArc
 50
122.60547834
 51
177.3945215143
  0
LINE
  5
2D9
330
1F
100
AcDbEntity
  8
0
  6
Continuous
 62
     7
370
    25
100
AcDbLine
 10
238.2340318394
 20
162.0126854006
 30
0.0
 11
237.5976357364
 21
161.6453017503
 31
0.0
  0
ARC
  5
2DA
330
1F
100
AcDbEntity
  8
0
  6
Continuous
 62
     7
370
    25
100
AcDbCircle
 10
239.3302394036
 20
160.6453286733
 30
0.0
 40
1.752522594348697
100
AcDbArc
 50
351.2701565399
 51
128.7190917054
  0
LINE
  5
2DB
330
1F
100
AcDbEntity
  8
0
  6
Continuous
 62
     7
370
    25
100
AcDbLine
 10
241.0624589642
 20
144.6499861011
 30
0.0
 11
241.0624589642
 21
160.3793383767
 31
0.0
  0
LINE
  5
2DC
330
1F
100
AcDbEntity
  8
0
  6
Continuous
 62
     7
370
    25
100
AcDbLine
 10
241.0624589642
 20
144.6499861011
 30
0.0
 11
217.727935185
 21
131.179252256
 31
0.0
  0
LINE
  5
2DD
330
1F
100
AcDbEntity
  8
0
  6
Continuous
 62
     7
370
    25
100
AcDbLine
 10
217.727935185
 20
146.9086045317
 30
0.0
 11
217.727935185
 21
131.179252256
 31
0.0
  0
LINE
  5
2DE
330
1F
100
AcDbEntity
  8
0
  6
Continuous
 62
     7
370
    25
100
AcDbLine
 10
221.1927584128
 20
152.1749676532
 30
0.0
 11
220.5563623098
 21
151.8075840029
 31
0.0
  0
ARC
  5
2DF
330
1F
100
AcDbEntity
  8
0
  6
Continuous
 62
     7
370
    25
100
AcDbCircle
 10
221.4687908266
 20
151.8365580941
 30
0.0
 40
0.4367091974285027
100
AcDbArc
 50
350.7859630095
 51
129.2032852357
  0
LINE
  5
2E0
330
1F
100
AcDbEntity
  8
0
  6
Continuous
 62
     7
370
    25
100
AcDbLine
 10
221.899865194
 20
151.7666308972
 30
0.0
 11
221.899865194
 21
147.4389645942
 31
0.0
  0
LINE
  5
2E1
330
1F
100
AcDbEntity
  8
0
  6
Continuous
 62
     7
370
    25
100
AcDbLine
 10
218.3278445782
 20
123.9449662718
 30
0.0
 11
218.3278445782
 21
124.9248152461
 31
0.0
  0
LINE
  5
2E2
330
1F
100
AcDbEntity
  8
0
  6
Continuous
 62
     7
370
    25
100
AcDbLine
 10
218.3278445782
 20
123.9449662718
 30
0.0
 11
213.3780971099
 21
121.0875378804
 31
0.0
  0
LINE
  5
2E3
330
1F
100
AcDbEntity
  8
0
  6
Continuous
 62
     7
370
    25
100
AcDbLine
 10
216.8794070476
 20
131.6690971231
 30
0.0
 11
217.727935185
 21
131.179252256
 31
0.0
  0
LINE
  5
2E4
330
1F
100
AcDbEntity
  8
0
  6
Continuous
 62
     7
370
    25
100
AcDbLine
 10
216.8794070476
 20
147.3984493988
 30
0.0
 11
216.8794070476
 21
131.6690971231
 31
0.0
  0
LINE
  5
2E5
330
1F
100
AcDbEntity
  8
0
  6
Continuous
 62
     7
370
    25
100
AcDbLine
 10
221.1927584128
 20
152.1749676532
 30
0.0
 11
220.3442302754
 21
152.6648125203
 31
0.0
  0
LINE
  5
2E6
330
1F
100
AcDbEntity
  8
0
  6
Continuous
 62
     7
370
    25
100
AcDbLine
 10
220.3442302754
 20
152.6648125203
 30
0.0
 11
219.7078341723
 21
152.2974288699
 31
0.0
  0
ARC
  5
2E7
330
1F
100
AcDbEntity
  8
0
  6
Continuous
 62
     7
370
    25
100
AcDbCircle
 10
220.6371503303
 20
152.2559311911
 30
0.0
 40
0.5029772359020084
100
AcDbArc
 50
65.6928809539
 51
125.6175774752
  0
ARC
  5
2E8
330
1F
100
AcDbEntity
  8
0
  6
Continuous
 62
     7
370
    25
100
AcDbCircle
 10
223.3132123003
 20
123.6422997981
 30
0.0
 40
1.993288647706371
100
AcDbArc
 50
294.0681184713
 51
354.6117405711
  0
ARC
  5
2E9
330
1F
100
AcDbEntity
  8
0
  6
Continuous
 62
     7
370
    25
100
AcDbCircle
 10
219.5096752165
 20
121.8012381817
 30
0.0
 40
2.44791621218446
100
AcDbArc
 50
52.4094769954
 51
118.8678116908
  0
LINE
  5
2EA
330
1F
100
AcDbEntity
  8
0
  6
Continuous
 62
     7
370
    25
100
AcDbLine
 10
224.1626068938
 20
153.0728838761
 30
0.0
 11
223.3140787564
 21
153.5627287432
 31
0.0
  0
LINE
  5
2EB
330
1F
100
AcDbEntity
  8
0
  6
Continuous
 62
     7
370
    25
100
AcDbLine
 10
224.0211855376
 20
154.787473611
 30
0.0
 11
224.869713675
 21
154.2976287439
 31
0.0
  0
ARC
  5
2EC
330
1F
100
AcDbEntity
  8
0
  6
Continuous
 62
     7
370
    25
100
AcDbCircle
 10
224.8492948578
 20
153.4928678909
 30
0.0
 40
1.536804807572298
100
AcDbArc
 50
122.60547834
 51
177.3945215143
  0
LINE
  5
2ED
330
1F
100
AcDbEntity
  8
0
  6
Continuous
 62
     7
370
    25
100
AcDbLine
 10
223.3140787564
 20
149.2350624402
 30
0.0
 11
224.1626068938
 21
148.7452175731
 31
0.0
  0
LINE
  5
2EE
330
1F
100
AcDbEntity
  8
0
  6
Continuous
 62
     7
370
    25
100
AcDbLine
 10
223.3140787564
 20
149.2350624402
 30
0.0
 11
223.3140787564
 21
153.5627287432
 31
0.0
  0
LINE
  5
2EF
330
1F
100
AcDbEntity
  8
0
  6
Continuous
 62
     7
370
    25
100
AcDbLine
 10
233.9206804742
 20
159.5226406596
 30
0.0
 11
233.0721523368
 21
160.0124855267
 31
0.0
  0
LINE
  5
2F0
330
1F
100
AcDbEntity
  8
0
  6
Continuous
 62
     7
370
    25
100
AcDbLine
 10
233.0721523368
 20
160.0124855267
 30
0.0
 11
224.0211855376
 21
154.787473611
 31
0.0
  0
ARC
  5
2F1
330
1F
100
AcDbEntity
  8
0
  6
Continuous
 62
     7
370
    25
100
AcDbCircle
 10
220.992163696
 20
149.2874872078
 30
0.0
 40
2.322506814569675
100
AcDbArc
 50
293.7830722029
 51
358.7065815956
  0
ARC
  5
2F2
330
1F
100
AcDbEntity
  8
0
  6
Continuous
 62
     7
370
    25
100
AcDbCircle
 10
221.0613808469
 20
145.1465602241
 30
0.0
 40
2.241669102970864
100
AcDbArc
 50
292.7642375178
 51
7.2411390149
  0
ARC
  5
2F3
330
1F
100
AcDbEntity
  8
0
  6
Continuous
 62
     7
370
    25
100
AcDbCircle
 10
233.3650723916
 20
159.6036041976
 30
0.0
 40
0.5029772359017374
100
AcDbArc
 50
65.6928809539
 51
125.6175774752
  0
LINE
  5
2F4
330
1F
100
AcDbEntity
  8
0
  6
Continuous
 62
     7
370
    25
100
AcDbLine
 10
216.3585521926
 20
130.5519081568
 30
0.0
 11
216.3585521926
 21
131.3683162686
 31
0.0
  0
ARC
  5
2F5
330
1F
100
AcDbEntity
  8
0
  6
Continuous
 62
     7
370
    25
100
AcDbCircle
 10
215.6514454114
 20
128.9521223389
 30
0.0
 40
1.60757221912451
100
AcDbArc
 50
70.7904835679
 51
109.2095164321
  0
ARC
  5
2F6
330
1F
100
AcDbEntity
  8
0
  6
Continuous
 62
     7
370
    25
100
AcDbCircle
 10
216.9004805257
 20
131.0387274251
 30
0.0
 40
0.8393023539213528
100
AcDbArc
 50
274.3988555149
 51
9.6384576193
  0
ARC
  5
2F7
330
1F
100
AcDbEntity
  8
0
  6
Continuous
 62
     7
370
    25
100
AcDbCircle
 10
216.5618776685
 20
131.6175887498
 30
0.0
 40
0.3216799948258281
100
AcDbArc
 50
230.7967147643
 51
9.2140369905
  0
ARC
  5
2F8
330
1F
100
AcDbEntity
  8
0
  6
Continuous
 62
     7
370
    25
100
AcDbCircle
 10
240.1412463166
 20
144.5326978033
 30
0.0
 40
0.9286491731286288
100
AcDbArc
 50
304.0563508293
 51
7.255829564
  0
LINE
  5
2F9
330
1F
100
AcDbEntity
  8
0
  6
Continuous
 62
     7
370
    25
100
AcDbLine
 10
236.8905289552
 20
160.4205568825
 30
0.0
 11
236.0420008177
 21
160.9104017496
 31
0.0
  0
LINE
  5
2FA
330
1F
100
AcDbEntity
  8
0
  6
Continuous
 62
     7
370
    25
100
AcDbLine
 10
236.7491075989
 20
162.1351466174
 30
0.0
 11
237.5976357364
 21
161.6453017503
 31
0.0
  0
ARC
  5
2FB
330
1F
100
AcDbEntity
  8
0
  6
Continuous
 62
     7
370
    25
100
AcDbCircle
 10
237.5772169191
 20
160.8405408974
 30
0.0
 40
1.536804807572079
100
AcDbArc
 50
122.60547834
 51
177.3945215143
  0
LINE
  5
2FC
330
1F
100
AcDbEntity
  8
0
  6
Continuous
 62
     7
370
    25
100
AcDbLine
 10
236.0420008177
 20
156.5827354466
 30
0.0
 11
236.8905289552
 21
156.0928905795
 31
0.0
  0
LINE
  5
2FD
330
1F
100
AcDbEntity
  8
0
  6
Continuous
 62
     7
370
    25
100
AcDbLine
 10
236.0420008177
 20
156.5827354466
 30
0.0
 11
236.0420008177
 21
160.9104017496
 31
0.0
  0
LINE
  5
2FE
330
1F
100
AcDbEntity
  8
0
  6
Continuous
 62
     7
370
    25
100
AcDbLine
 10
238.2340318394
 20
162.0126854006
 30
0.0
 11
237.385503702
 21
162.5025302677
 31
0.0
  0
LINE
  5
2FF
330
1F
100
AcDbEntity
  8
0
  6
Continuous
 62
     7
370
    25
100
AcDbLine
 10
237.385503702
 20
162.5025302677
 30
0.0
 11
236.7491075989
 21
162.1351466174
 31
0.0
  0
ARC
  5
300
330
1F
100
AcDbEntity
  8
0
  6
Continuous
 62
     7
370
    25
100
AcDbCircle
 10
238.5550810879
 20
160.8882405142
 30
0.0
 40
1.993449941692145
100
AcDbArc
 50
65.3865595238
 51
125.9238989053
  0
ARC
  5
301
330
1F
100
AcDbEntity
  8
0
  6
Continuous
 62
     7
370
    25
100
AcDbCircle
 10
233.7200857574
 20
156.6351602142
 30
0.0
 40
2.322506814569611
100
AcDbArc
 50
293.7830722029
 51
358.7065815956
  0
ARC
  5
302
330
1F
100
AcDbEntity
  8
0
  6
Continuous
 62
     7
370
    25
100
AcDbCircle
 10
233.7893029082
 20
152.4942332305
 30
0.0
 40
2.241669102970751
100
AcDbArc
 50
292.7642375178
 51
7.2411390149
  0
LWPOLYLINE
  5
303
330
1F
100
AcDbEntity
  8
0
  6
Continuous
 62
     7
370
    25
100
AcDbPolyline
 90
       31
 70
   128
 43
0.0
 10
194.2497273079
 20
159.3181330538
 10
194.0145020816
 20
159.2108898224
 10
193.7895573264
 20
159.1654324375
 10
193.5847242075
 20
159.183747605
 10
193.4089549151
 20
159.2650348641
 10
193.2699314108
 20
159.4057415715
 10
193.1737296888
 20
159.5997181691
 10
193.1245542259
 20
159.8384869486
 10
193.1245542259
 20
160.1116125686
 10
193.1737296888
 20
160.407158129
 10
193.2699314108
 20
160.7122068706
 10
193.4089549151
 20
161.0134266995
 10
193.5847242075
 20
161.2976528639
 10
193.7895573264
 20
161.5524633165
 10
194.0145020816
 20
161.7667216177
 10
194.2497273079
 20
161.9310636518
 10
194.4849525343
 20
162.0383068832
 10
194.7098972895
 20
162.0837642681
 10
194.9147304084
 20
162.0654491007
 10
195.0904997007
 20
161.9841618415
 10
195.229523205
 20
161.8434551341
 10
195.3257249271
 20
161.6494785365
 10
195.3749003899
 20
161.410709757
 10
195.3749003899
 20
161.137584137
 10
195.3257249271
 20
160.8420385766
 10
195.229523205
 20
160.5369898351
 10
195.0904997007
 20
160.2357700061
 10
194.9147304084
 20
159.9515438417
 10
194.7098972895
 20
159.6967333891
 10
194.4849525343
 20
159.4824750879
 10
194.2497273079
 20
159.3181330538
  0
LWPOLYLINE
  5
304
330
1F
100
AcDbEntity
  8
0
  6
Continuous
 62
     7
370
    25
100
AcDbPolyline
 90
       31
 70
   128
 43
0.0
 10
206.9776493693
 20
166.6658060602
 10
206.7424241429
 20
166.5585628288
 10
206.5174793877
 20
166.5131054439
 10
206.3126462688
 20
166.5314206114
 10
206.1368769765
 20
166.6127078705
 10
205.9978534722
 20
166.7534145779
 10
205.9016517501
 20
166.9473911755
 10
205.8524762873
 20
167.186159955
 10
205.8524762873
 20
167.459285575
 10
205.9016517501
 20
167.7548311354
 10
205.9978534722
 20
168.059879877
 10
206.1368769765
 20
168.3610997059
 10
206.3126462688
 20
168.6453258703
 10
206.5174793877
 20
168.9001363229
 10
206.7424241429
 20
169.1143946241
 10
206.9776493693
 20
169.2787366582
 10
207.2128745956
 20
169.3859798896
 10
207.4378193508
 20
169.4314372745
 10
207.6426524697
 20
169.4131221071
 10
207.8184217621
 20
169.331834848
 10
207.9574452664
 20
169.1911281405
 10
208.0536469884
 20
168.9971515429
 10
208.1028224513
 20
168.7583827634
 10
208.1028224513
 20
168.4852571434
 10
208.0536469884
 20
168.189711583
 10
207.9574452664
 20
167.8846628415
 10
207.8184217621
 20
167.5834430125
 10
207.6426524697
 20
167.2992168481
 10
207.4378193508
 20
167.0444063956
 10
207.2128745956
 20
166.8301480943
 10
206.9776493693
 20
166.6658060602
  0
LWPOLYLINE
  5
305
330
1F
100
AcDbEntity
  8
0
  6
Continuous
 62
     7
370
    25
100
AcDbPolyline
 90
       16
 70
   128
 43
0.0
 10
195.3810981578
 20
165.3604289017
 10
195.3563749903
 20
165.0745271116
 10
195.2832860088
 20
164.7725758399
 10
195.1650255524
 20
164.4677718063
 10
195.0067621707
 20
164.1734364095
 10
194.8154127329
 20
163.9024335189
 10
194.5993401275
 20
163.666607261
 10
194.3679877642
 20
163.4762643751
 10
194.1314668516
 20
163.3397237586
 10
193.9001144884
 20
163.2629528916
 10
193.684041883
 20
163.2493070294
 10
193.4926924451
 20
163.2993825617
 10
193.3344290634
 20
163.4109909474
 10
193.2161686071
 20
163.5792543645
 10
193.1430796256
 20
163.7968188943
 10
193.118356458
 20
164.0541759228
  0
LINE
  5
306
330
1F
100
AcDbEntity
  8
0
  6
Continuous
 62
     7
370
    25
100
AcDbLine
 10
195.3810981578
 20
169.6880952047
 30
0.0
 11
195.3810981578
 21
165.3604289017
 31
0.0
  0
ARC
  5
307
330
1F
100
AcDbEntity
  8
0
  6
Continuous
 62
     7
370
    25
100
AcDbCircle
 10
196.9163142592
 20
169.6182343524
 30
0.0
 40
1.536804807571941
100
AcDbArc
 50
122.60547834
 51
177.3945215143
  0
LINE
  5
308
330
1F
100
AcDbEntity
  8
0
  6
Continuous
 62
     7
370
    25
100
AcDbLine
 10
196.088204939
 20
170.9128400725
 30
0.0
 11
205.1391717382
 21
176.1378519881
 31
0.0
  0
ARC
  5
309
330
1F
100
AcDbEntity
  8
0
  6
Continuous
 62
     7
370
    25
100
AcDbCircle
 10
205.415204152
 20
175.7994424291
 30
0.0
 40
0.4367091974285183
100
AcDbArc
 50
350.7859630096
 51
129.2032852357
  0
LINE
  5
30A
330
1F
100
AcDbEntity
  8
0
  6
Continuous
 62
     7
370
    25
100
AcDbLine
 10
205.8462785194
 20
171.4018489292
 30
0.0
 11
205.8462785194
 21
175.7295152322
 31
0.0
  0
LWPOLYLINE
  5
30B
330
1F
100
AcDbEntity
  8
0
  6
Continuous
 62
     7
370
    25
100
AcDbPolyline
 90
       16
 70
   128
 43
0.0
 10
208.1090202192
 20
172.7081019081
 10
208.0842970516
 20
172.422200118
 10
208.0112080701
 20
172.1202488463
 10
207.8929476138
 20
171.8154448127
 10
207.7346842321
 20
171.5211094159
 10
207.5433347942
 20
171.2501065253
 10
207.3272621888
 20
171.0142802674
 10
207.0959098256
 20
170.8239373815
 10
206.859388913
 20
170.687396765
 10
206.6280365497
 20
170.610625898
 10
206.4119639443
 20
170.5969800358
 10
206.2206145065
 20
170.6470555681
 10
206.0623511248
 20
170.7586639538
 10
205.9440906684
 20
170.9269273709
 10
205.8710016869
 20
171.1444919007
 10
205.8462785194
 20
171.4018489292
  0
LINE
  5
30C
330
1F
100
AcDbEntity
  8
0
  6
Continuous
 62
     7
370
    25
100
AcDbLine
 10
208.1090202192
 20
177.0357682111
 30
0.0
 11
208.1090202192
 21
172.7081019081
 31
0.0
  0
ARC
  5
30D
330
1F
100
AcDbEntity
  8
0
  6
Continuous
 62
     7
370
    25
100
AcDbCircle
 10
209.6442363205
 20
176.9659073588
 30
0.0
 40
1.536804807571969
100
AcDbArc
 50
122.60547834
 51
177.3945215143
  0
LINE
  5
30E
330
1F
100
AcDbEntity
  8
0
  6
Continuous
 62
     7
370
    25
100
AcDbLine
 10
208.8161270004
 20
178.2605130789
 30
0.0
 11
209.4525231034
 21
178.6278967292
 31
0.0
  0
ARC
  5
30F
330
1F
100
AcDbEntity
  8
0
  6
Continuous
 62
     7
370
    25
100
AcDbCircle
 10
210.5487306677
 20
177.2605400019
 30
0.0
 40
1.752522594348673
100
AcDbArc
 50
351.2701565399
 51
128.7190917054
  0
LINE
  5
310
330
1F
100
AcDbEntity
  8
0
  6
Continuous
 62
     7
370
    25
100
AcDbLine
 10
212.2809502282
 20
176.9945497053
 30
0.0
 11
212.2809502282
 21
161.2651974296
 31
0.0
  0
LINE
  5
311
330
1F
100
AcDbEntity
  8
0
  6
Continuous
 62
     7
370
    25
100
AcDbLine
 10
212.2809502282
 20
161.2651974296
 30
0.0
 11
188.946426449
 21
147.7944635846
 31
0.0
  0
LINE
  5
312
330
1F
100
AcDbEntity
  8
0
  6
Continuous
 62
     7
370
    25
100
AcDbLine
 10
188.946426449
 20
147.7944635846
 30
0.0
 11
188.946426449
 21
163.5238158602
 31
0.0
  0
ARC
  5
313
330
1F
100
AcDbEntity
  8
0
  6
Continuous
 62
     7
370
    25
100
AcDbCircle
 10
195.063529731
 20
163.2580909423
 30
0.0
 40
6.122872062603336
100
AcDbArc
 50
122.4873455707
 51
177.5126542837
  0
LINE
  5
314
330
1F
100
AcDbEntity
  8
0
  6
Continuous
 62
     7
370
    25
100
AcDbLine
 10
191.7748535738
 20
168.4227953314
 30
0.0
 11
192.4112496768
 21
168.7901789817
 31
0.0
  0
ARC
  5
315
330
1F
100
AcDbEntity
  8
0
  6
Continuous
 62
     7
370
    25
100
AcDbCircle
 10
192.6872820906
 20
168.4517694227
 30
0.0
 40
0.436709197428502
100
AcDbArc
 50
350.7859630095
 51
129.2032852357
  0
LINE
  5
316
330
1F
100
AcDbEntity
  8
0
  6
Continuous
 62
     7
370
    25
100
AcDbLine
 10
193.118356458
 20
164.0541759228
 30
0.0
 11
193.118356458
 21
168.3818422258
 31
0.0
  0
LINE
  5
317
330
1F
100
AcDbEntity
  8
0
  6
Continuous
 62
     7
370
    25
100
AcDbLine
 10
190.9263254363
 20
168.9126401985
 30
0.0
 11
191.7748535738
 21
168.4227953314
 31
0.0
  0
LINE
  5
318
330
1F
100
AcDbEntity
  8
0
  6
Continuous
 62
     7
370
    25
100
AcDbLine
 10
188.946426449
 20
163.5238158602
 30
0.0
 11
188.0978983116
 21
164.0136607273
 31
0.0
  0
ARC
  5
319
330
1F
100
AcDbEntity
  8
0
  6
Continuous
 62
     7
370
    25
100
AcDbCircle
 10
194.2149580139
 20
163.7479609701
 30
0.0
 40
6.122827432078149
100
AcDbArc
 50
122.4871280433
 51
177.512871811
  0
LINE
  5
31A
330
1F
100
AcDbEntity
  8
0
  6
Continuous
 62
     7
370
    25
100
AcDbLine
 10
254.5317117749
 20
139.3750795853
 30
0.0
 11
254.5317117749
 21
140.3549285595
 31
0.0
  0
LINE
  5
31B
330
1F
100
AcDbEntity
  8
0
  6
Continuous
 62
     7
370
    25
100
AcDbLine
 10
248.8748575254
 20
139.3750795853
 30
0.0
 11
248.8748575254
 21
140.3549285595
 31
0.0
  0
ARC
  5
31C
330
1F
100
AcDbEntity
  8
0
  6
Continuous
 62
     7
370
    25
100
AcDbCircle
 10
251.7032846502
 20
144.806452854
 30
0.0
 40
6.123709299497015
100
AcDbArc
 50
242.4914255688
 51
297.5085744312
  0
LINE
  5
31D
330
1F
100
AcDbEntity
  8
0
  6
Continuous
 62
     7
370
    25
100
AcDbLine
 10
188.946426449
 20
147.7944635846
 30
0.0
 11
188.0978983116
 21
148.2843084517
 31
0.0
  0
LINE
  5
31E
330
1F
100
AcDbEntity
  8
0
  6
Continuous
 62
     7
370
    25
100
AcDbLine
 10
188.0978983116
 20
148.2843084517
 30
0.0
 11
188.0978983116
 21
164.0136607273
 31
0.0
  0
LINE
  5
31F
330
1F
100
AcDbEntity
  8
0
  6
Continuous
 62
     7
370
    25
100
AcDbLine
 10
192.4112496768
 20
168.7901789817
 30
0.0
 11
191.5627215394
 21
169.2800238488
 31
0.0
  0
LINE
  5
320
330
1F
100
AcDbEntity
  8
0
  6
Continuous
 62
     7
370
    25
100
AcDbLine
 10
190.9263254363
 20
168.9126401985
 30
0.0
 11
191.5627215394
 21
169.2800238488
 31
0.0
  0
ARC
  5
321
330
1F
100
AcDbEntity
  8
0
  6
Continuous
 62
     7
370
    25
100
AcDbCircle
 10
191.8556415943
 20
168.8711425197
 30
0.0
 40
0.5029772359018271
100
AcDbArc
 50
65.6928809539
 51
125.6175774752
  0
LINE
  5
322
330
1F
100
AcDbEntity
  8
0
  6
Continuous
 62
     7
370
    25
100
AcDbLine
 10
241.1072895341
 20
143.8592011394
 30
0.0
 11
241.1072895341
 21
144.8390501137
 31
0.0
  0
LINE
  5
323
330
1F
100
AcDbEntity
  8
0
  6
Continuous
 62
     7
370
    25
100
AcDbLine
 10
241.1072895341
 20
143.8592011394
 30
0.0
 11
248.8748575254
 21
139.3750795853
 31
0.0
  0
LINE
  5
324
330
1F
100
AcDbEntity
  8
0
  6
Continuous
 62
     7
370
    25
100
AcDbLine
 10
261.2492261962
 20
143.2530181164
 30
0.0
 11
261.2492261962
 21
144.2328670907
 31
0.0
  0
LINE
  5
325
330
1F
100
AcDbEntity
  8
0
  6
Continuous
 62
     7
370
    25
100
AcDbLine
 10
254.5317117749
 20
139.3750795853
 30
0.0
 11
261.2492261962
 21
143.2530181164
 31
0.0
  0
LINE
  5
326
330
1F
100
AcDbEntity
  8
0
  6
Continuous
 62
     7
370
    25
100
AcDbLine
 10
195.3810981578
 20
169.6880952047
 30
0.0
 11
194.5325700204
 21
170.1779400718
 31
0.0
  0
LINE
  5
327
330
1F
100
AcDbEntity
  8
0
  6
Continuous
 62
     7
370
    25
100
AcDbLine
 10
195.2396768016
 20
171.4026849396
 30
0.0
 11
196.088204939
 21
170.9128400725
 31
0.0
  0
ARC
  5
328
330
1F
100
AcDbEntity
  8
0
  6
Continuous
 62
     7
370
    25
100
AcDbCircle
 10
196.0677861218
 20
170.1080792195
 30
0.0
 40
1.536804807572172
100
AcDbArc
 50
122.60547834
 51
177.3945215143
  0
LINE
  5
329
330
1F
100
AcDbEntity
  8
0
  6
Continuous
 62
     7
370
    25
100
AcDbLine
 10
194.5325700204
 20
165.8502737688
 30
0.0
 11
195.3810981578
 21
165.3604289017
 31
0.0
  0
LINE
  5
32A
330
1F
100
AcDbEntity
  8
0
  6
Continuous
 62
     7
370
    25
100
AcDbLine
 10
194.5325700204
 20
170.1779400718
 30
0.0
 11
194.5325700204
 21
165.8502737688
 31
0.0
  0
LINE
  5
32B
330
1F
100
AcDbEntity
  8
0
  6
Continuous
 62
     7
370
    25
100
AcDbLine
 10
205.1391717382
 20
176.1378519881
 30
0.0
 11
204.2906436008
 21
176.6276968552
 31
0.0
  0
LINE
  5
32C
330
1F
100
AcDbEntity
  8
0
  6
Continuous
 62
     7
370
    25
100
AcDbLine
 10
195.2396768016
 20
171.4026849396
 30
0.0
 11
204.2906436008
 21
176.6276968552
 31
0.0
  0
LINE
  5
32D
330
1F
100
AcDbEntity
  8
0
  6
Continuous
 62
     7
370
    25
100
AcDbLine
 10
250.8547565128
 20
142.7223528437
 30
0.0
 11
250.8547565128
 21
143.702201818
 31
0.0
  0
LWPOLYLINE
  5
32E
330
1F
100
AcDbEntity
  8
0
  6
Continuous
 62
     7
370
    25
100
AcDbPolyline
 90
        3
 70
   128
 43
0.0
 10
250.8547565128
 20
142.7223528437
 10
250.6310980753
 20
142.5629087668
 10
250.5838255081
 20
142.5183304358
  0
ARC
  5
32F
330
1F
100
AcDbEntity
  8
0
  6
Continuous
 62
     7
370
    25
100
AcDbCircle
 10
192.2248903268
 20
165.8931849092
 30
0.0
 40
2.308078623964127
100
AcDbArc
 50
293.5549419893
 51
358.9347118091
  0
LINE
  5
330
330
1F
100
AcDbEntity
  8
0
  6
Continuous
 62
     7
370
    25
100
AcDbLine
 10
255.8045039811
 20
145.5797812351
 30
0.0
 11
255.8045039811
 21
146.5596302094
 31
0.0
  0
LINE
  5
331
330
1F
100
AcDbEntity
  8
0
  6
Continuous
 62
     7
370
    25
100
AcDbLine
 10
255.8045039811
 20
145.5797812351
 30
0.0
 11
250.8547565128
 21
142.7223528437
 31
0.0
  0
LWPOLYLINE
  5
332
330
1F
100
AcDbEntity
  8
0
  6
Continuous
 62
     7
370
    25
100
AcDbPolyline
 90
        3
 70
   128
 43
0.0
 10
193.4011991705
 20
159.8079779209
 10
193.1659739442
 20
159.7007346895
 10
193.1472637976
 20
159.6947176034
  0
ARC
  5
333
330
1F
100
AcDbEntity
  8
0
  6
Continuous
 62
     7
370
    25
100
AcDbCircle
 10
192.1948392553
 20
161.792600341
 30
0.0
 40
2.322505198146072
100
AcDbArc
 50
301.2934774178
 51
6.2221990206
  0
ARC
  5
334
330
1F
100
AcDbEntity
  8
0
  6
Continuous
 62
     7
370
    25
100
AcDbCircle
 10
260.4363183126
 20
145.0730127334
 30
0.0
 40
1.993288647706855
100
AcDbArc
 50
294.0681184713
 51
354.6117405711
  0
ARC
  5
335
330
1F
100
AcDbEntity
  8
0
  6
Continuous
 62
     7
370
    25
100
AcDbCircle
 10
168.7240389631
 20
145.0730127334
 30
0.0
 40
1.993288647706661
100
AcDbArc
 50
185.3882594289
 51
245.9318815287
  0
LINE
  5
336
330
1F
100
AcDbEntity
  8
0
  6
Continuous
 62
     7
370
    25
100
AcDbLine
 10
241.0624589642
 20
144.6999436603
 30
0.0
 11
241.1072895341
 21
144.6756092513
 31
0.0
  0
LINE
  5
337
330
1F
100
AcDbEntity
  8
0
  6
Continuous
 62
     7
370
    25
100
AcDbLine
 10
170.9516902387
 20
145.5797812351
 30
0.0
 11
170.9516902387
 21
146.5596302094
 31
0.0
  0
LWPOLYLINE
  5
338
330
1F
100
AcDbEntity
  8
0
  6
Continuous
 62
     7
370
    25
100
AcDbPolyline
 90
        3
 70
   128
 43
0.0
 10
170.9516902387
 20
145.5797812351
 10
170.7280318012
 20
145.4203371582
 10
170.680759234
 20
145.3757588272
  0
ARC
  5
339
330
1F
100
AcDbEntity
  8
0
  6
Continuous
 62
     7
370
    25
100
AcDbCircle
 10
256.9863346194
 20
143.436053145
 30
0.0
 40
2.447916212184354
100
AcDbArc
 50
52.4094769954
 51
118.8678116908
  0
LINE
  5
33A
330
1F
100
AcDbEntity
  8
0
  6
Continuous
 62
     7
370
    25
100
AcDbLine
 10
188.0530677417
 20
146.0759084031
 30
0.0
 11
188.0530677417
 21
146.8923165149
 31
0.0
  0
LINE
  5
33B
330
1F
100
AcDbEntity
  8
0
  6
Continuous
 62
     7
370
    25
100
AcDbLine
 10
189.467281304
 20
146.0759084031
 30
0.0
 11
189.467281304
 21
146.8923165149
 31
0.0
  0
LINE
  5
33C
330
1F
100
AcDbEntity
  8
0
  6
Continuous
 62
     7
370
    25
100
AcDbLine
 10
175.901437707
 20
148.4372096265
 30
0.0
 11
175.901437707
 21
149.4170586007
 31
0.0
  0
LINE
  5
33D
330
1F
100
AcDbEntity
  8
0
  6
Continuous
 62
     7
370
    25
100
AcDbLine
 10
175.901437707
 20
148.4372096265
 30
0.0
 11
170.9516902387
 21
145.5797812351
 31
0.0
  0
ARC
  5
33E
330
1F
100
AcDbEntity
  8
0
  6
Continuous
 62
     7
370
    25
100
AcDbCircle
 10
191.1065510041
 20
148.431982801
 30
0.0
 40
3.01227467832374
100
AcDbArc
 50
182.8100059706
 51
233.6428057253
  0
ARC
  5
33F
330
1F
100
AcDbEntity
  8
0
  6
Continuous
 62
     7
370
    25
100
AcDbCircle
 10
190.0772666293
 20
147.8459230883
 30
0.0
 40
1.132010421257522
100
AcDbArc
 50
182.6054784857
 51
237.39452166
  0
ARC
  5
340
330
1F
100
AcDbEntity
  8
0
  6
Continuous
 62
     7
370
    25
100
AcDbCircle
 10
213.4117904084
 20
161.3166569334
 30
0.0
 40
1.132010421257788
100
AcDbArc
 50
182.6054784857
 51
237.39452166
  0
ARC
  5
341
330
1F
100
AcDbEntity
  8
0
  6
Continuous
 62
     7
370
    25
100
AcDbCircle
 10
204.5835636556
 20
176.2188155261
 30
0.0
 40
0.5029772359017505
100
AcDbArc
 50
65.6928809539
 51
125.6175774752
  0
ARC
  5
342
330
1F
100
AcDbEntity
  8
0
  6
Continuous
 62
     7
370
    25
100
AcDbCircle
 10
177.0832683453
 20
146.2934815364
 30
0.0
 40
2.447916212184467
100
AcDbArc
 50
52.4094769954
 51
118.8678116908
  0
LINE
  5
343
330
1F
100
AcDbEntity
  8
0
  6
Continuous
 62
     7
370
    25
100
AcDbLine
 10
208.1090202192
 20
177.0357682111
 30
0.0
 11
207.2604920818
 21
177.5256130782
 31
0.0
  0
LINE
  5
344
330
1F
100
AcDbEntity
  8
0
  6
Continuous
 62
     7
370
    25
100
AcDbLine
 10
207.9675988629
 20
178.750357946
 30
0.0
 11
208.8161270004
 21
178.2605130789
 31
0.0
  0
ARC
  5
345
330
1F
100
AcDbEntity
  8
0
  6
Continuous
 62
     7
370
    25
100
AcDbCircle
 10
208.7957081831
 20
177.4557522259
 30
0.0
 40
1.53680480757194
100
AcDbArc
 50
122.60547834
 51
177.3945215143
  0
LINE
  5
346
330
1F
100
AcDbEntity
  8
0
  6
Continuous
 62
     7
370
    25
100
AcDbLine
 10
207.2604920818
 20
173.1979467752
 30
0.0
 11
208.1090202192
 21
172.7081019081
 31
0.0
  0
LINE
  5
347
330
1F
100
AcDbEntity
  8
0
  6
Continuous
 62
     7
370
    25
100
AcDbLine
 10
207.2604920818
 20
177.5256130782
 30
0.0
 11
207.2604920818
 21
173.1979467752
 31
0.0
  0
LINE
  5
348
330
1F
100
AcDbEntity
  8
0
  6
Continuous
 62
     7
370
    25
100
AcDbLine
 10
209.4525231034
 20
178.6278967292
 30
0.0
 11
208.603994966
 21
179.1177415963
 31
0.0
  0
LINE
  5
349
330
1F
100
AcDbEntity
  8
0
  6
Continuous
 62
     7
370
    25
100
AcDbLine
 10
207.9675988629
 20
178.750357946
 30
0.0
 11
208.603994966
 21
179.1177415963
 31
0.0
  0
ARC
  5
34A
330
1F
100
AcDbEntity
  8
0
  6
Continuous
 62
     7
370
    25
100
AcDbCircle
 10
209.7735723519
 20
177.5034518427
 30
0.0
 40
1.993449941692196
100
AcDbArc
 50
65.3865595238
 51
125.9238989053
  0
ARC
  5
34B
330
1F
100
AcDbEntity
  8
0
  6
Continuous
 62
     7
370
    25
100
AcDbCircle
 10
204.9528123881
 20
173.2408579156
 30
0.0
 40
2.308078623963928
100
AcDbArc
 50
293.5549419893
 51
358.9347118091
  0
LWPOLYLINE
  5
34C
330
1F
100
AcDbEntity
  8
0
  6
Continuous
 62
     7
370
    25
100
AcDbPolyline
 90
        3
 70
   128
 43
0.0
 10
206.1291212319
 20
167.1556509273
 10
205.8938960055
 20
167.0484076959
 10
205.8751858589
 20
167.0423906098
  0
ARC
  5
34D
330
1F
100
AcDbEntity
  8
0
  6
Continuous
 62
     7
370
    25
100
AcDbCircle
 10
204.9227613166
 20
169.1402733474
 30
0.0
 40
2.322505198145951
100
AcDbArc
 50
301.2934774178
 51
6.2221990206
  0
LINE
  5
34E
330
1F
100
AcDbEntity
  8
0
  6
Continuous
 62
     7
370
    25
100
AcDbLine
 10
212.8018050832
 20
160.36305036
 30
0.0
 11
212.8018050832
 21
161.1794584718
 31
0.0
  0
ARC
  5
34F
330
1F
100
AcDbEntity
  8
0
  6
Continuous
 62
     7
370
    25
100
AcDbCircle
 10
213.5089118644
 20
158.758356979
 30
0.0
 40
1.612207346201194
100
AcDbArc
 50
70.8478680693
 51
109.1521319307
  0
LINE
  5
350
330
1F
100
AcDbEntity
  8
0
  6
Continuous
 62
     7
370
    25
100
AcDbLine
 10
213.3780971099
 20
170.0720245898
 30
0.0
 11
213.3780971099
 21
171.0518735641
 31
0.0
  0
LINE
  5
351
330
1F
100
AcDbEntity
  8
0
  6
Continuous
 62
     7
370
    25
100
AcDbLine
 10
213.3780971099
 20
170.0720245898
 30
0.0
 11
212.2809502282
 21
169.4386551766
 31
0.0
  0
ARC
  5
352
330
1F
100
AcDbEntity
  8
0
  6
Continuous
 62
     7
370
    25
100
AcDbCircle
 10
214.5599277482
 20
167.9282964997
 30
0.0
 40
2.447916212184515
100
AcDbArc
 50
52.4094769954
 51
118.8678116908
  0
ENDSEC
  0
SECTION
  2
OBJECTS
  0
DICTIONARY
  5
C
330
0
100
AcDbDictionary
281
     1
  3
ACAD_GROUP
350
D
  3
ACAD_LAYOUT
350
1A
  3
ACAD_MLINESTYLE
350
17
  3
ACAD_PLOTSETTINGS
350
19
  3
ACAD_PLOTSTYLENAME
350
E
  3
ACAD_SCALELIST
350
47
  0
DICTIONARY
  5
D
102
{ACAD_REACTORS
330
C
102
}
330
C
100
AcDbDictionary
281
     1
  0
DICTIONARY
  5
1A
102
{ACAD_REACTORS
330
C
102
}
330
C
100
AcDbDictionary
281
     1
  3
Layout1
350
1E
  3
Layout2
350
26
  3
Model
350
22
  0
DICTIONARY
  5
17
102
{ACAD_REACTORS
330
C
102
}
330
C
100
AcDbDictionary
281
     1
  3
Standard
350
18
  0
DICTIONARY
  5
19
102
{ACAD_REACTORS
330
C
102
}
330
C
100
AcDbDictionary
281
     1
  0
ACDBDICTIONARYWDFLT
  5
E
102
{ACAD_REACTORS
330
C
102
}
330
C
100
AcDbDictionary
281
     1
  3
Normal
350
F
100
AcDbDictionaryWithDefault
340
F
  0
DICTIONARY
  5
47
102
{ACAD_REACTORS
330
C
102
}
330
C
100
AcDbDictionary
281
     1
  3
A0
350
48
  3
A1
350
49
  3
A2
350
4A
  3
A3
350
4B
  3
A4
350
4C
  3
A5
350
4D
  3
A6
350
4E
  3
A7
350
4F
  3
A8
350
50
  3
A9
350
51
  3
B0
350
52
  3
B1
350
53
  3
B2
350
54
  3
B3
350
55
  3
B4
350
56
  3
B5
350
57
  3
B6
350
58
  3
B7
350
59
  3
B8
350
5A
  3
B9
350
5B
  3
C0
350
5C
  3
C1
350
5D
  3
C2
350
5E
  3
C3
350
5F
  3
C4
350
60
  3
C5
350
61
  3
C6
350
62
  3
C7
350
63
  3
C8
350
64
  3
C9
350
65
  3
D0
350
66
  3
D1
350
67
  3
D2
350
68
  0
LAYOUT
  5
1E
102
{ACAD_REACTORS
330
1A
102
}
330
1A
100
AcDbPlotSettings
  1

  2
none_device
  4

  6

 40
0.0
 41
0.0
 42
0.0
 43
0.0
 44
0.0
 45
0.0
 46
0.0
 47
0.0
 48
0.0
 49
0.0
140
0.0
141
0.0
142
1.0
143
1.0
 70
   688
 72
     1
 73
     0
 74
     5
  7

 75
    16
147
1.0
148
0.0
149
0.0
100
AcDbLayout
  1
Layout1
 70
     1
 71
     1
 10
0.0
 20
0.0
 11
420.0
 21
297.0
 12
0.0
 22
0.0
 32
0.0
 14
1.0000000000E+20
 24
1.0000000000E+20
 34
1.0000000000E+20
 15
-1.0000000000E+20
 25
-1.0000000000E+20
 35
-1.0000000000E+20
146
0.0
 13
0.0
 23
0.0
 33
0.0
 16
1.0
 26
0.0
 36
0.0
 17
0.0
 27
1.0
 37
0.0
 76
     0
330
1B
  0
LAYOUT
  5
26
102
{ACAD_REACTORS
330
1A
102
}
330
1A
100
AcDbPlotSettings
  1

  2
none_device
  4

  6

 40
0.0
 41
0.0
 42
0.0
 43
0.0
 44
0.0
 45
0.0
 46
0.0
 47
0.0
 48
0.0
 49
0.0
140
0.0
141
0.0
142
1.0
143
1.0
 70
   688
 72
     1
 73
     0
 74
     5
  7

 75
    16
147
1.0
148
0.0
149
0.0
100
AcDbLayout
  1
Layout2
 70
     1
 71
     2
 10
0.0
 20
0.0
 11
0.0
 21
0.0
 12
0.0
 22
0.0
 32
0.0
 14
0.0
 24
0.0
 34
0.0
 15
0.0
 25
0.0
 35
0.0
146
0.0
 13
0.0
 23
0.0
 33
0.0
 16
1.0
 26
0.0
 36
0.0
 17
0.0
 27
1.0
 37
0.0
 76
     0
330
23
  0
LAYOUT
  5
22
102
{ACAD_REACTORS
330
1A
102
}
330
1A
100
AcDbPlotSettings
  1

  2
none_device
  4
Letter_(8.50_x_11.00_Inches)
  6

 40
6.35
 41
6.35
 42
6.35000508
 43
6.35000508
 44
215.9
 45
279.4
 46
0.0
 47
0.0
 48
0.0
 49
0.0
140
0.0
141
0.0
142
1.0
143
1.0
 70
  1712
 72
     1
 73
     0
 74
     0
  7

 75
     0
147
1.0
148
0.0
149
0.0
100
AcDbLayout
  1
Model
 70
     1
 71
     0
 10
0.0
 20
0.0
 11
297.0
 21
210.0
 12
0.0
 22
0.0
 32
0.0
 14
0.0
 24
0.0
 34
0.0
 15
297.0
 25
210.0
 35
0.0
146
0.0
 13
0.0
 23
0.0
 33
0.0
 16
1.0
 26
0.0
 36
0.0
 17
0.0
 27
1.0
 37
0.0
 76
     0
330
1F
331
29
  0
MLINESTYLE
  5
18
102
{ACAD_REACTORS
330
17
102
}
330
17
100
AcDbMlineStyle
  2
Standard
 70
     0
  3

 62
   256
 51
90.0
 52
90.0
 71
     2
 49
0.5
 62
   256
  6
BYLAYER
 49
-0.5
 62
   256
  6
BYLAYER
  0
ACDBPLACEHOLDER
  5
F
102
{ACAD_REACTORS
330
E
102
}
330
E
  0
SCALE
  5
48
102
{ACAD_REACTORS
330
47
102
}
330
47
100
AcDbScale
 70
     0
300
1:1
140
1.0
141
1.0
290
     1
  0
SCALE
  5
49
102
{ACAD_REACTORS
330
47
102
}
330
47
100
AcDbScale
 70
     0
300
1:2
140
1.0
141
2.0
290
     0
  0
SCALE
  5
4A
102
{ACAD_REACTORS
330
47
102
}
330
47
100
AcDbScale
 70
     0
300
1:4
140
1.0
141
4.0
290
     0
  0
SCALE
  5
4B
102
{ACAD_REACTORS
330
47
102
}
330
47
100
AcDbScale
 70
     0
300
1:5
140
1.0
141
5.0
290
     0
  0
SCALE
  5
4C
102
{ACAD_REACTORS
330
47
102
}
330
47
100
AcDbScale
 70
     0
300
1:8
140
1.0
141
8.0
290
     0
  0
SCALE
  5
4D
102
{ACAD_REACTORS
330
47
102
}
330
47
100
AcDbScale
 70
     0
300
1:10
140
1.0
141
10.0
290
     0
  0
SCALE
  5
4E
102
{ACAD_REACTORS
330
47
102
}
330
47
100
AcDbScale
 70
     0
300
1:16
140
1.0
141
16.0
290
     0
  0
SCALE
  5
4F
102
{ACAD_REACTORS
330
47
102
}
330
47
100
AcDbScale
 70
     0
300
1:20
140
1.0
141
20.0
290
     0
  0
SCALE
  5
50
102
{ACAD_REACTORS
330
47
102
}
330
47
100
AcDbScale
 70
     0
300
1:30
140
1.0
141
30.0
290
     0
  0
SCALE
  5
51
102
{ACAD_REACTORS
330
47
102
}
330
47
100
AcDbScale
 70
     0
300
1:40
140
1.0
141
40.0
290
     0
  0
SCALE
  5
52
102
{ACAD_REACTORS
330
47
102
}
330
47
100
AcDbScale
 70
     0
300
1:50
140
1.0
141
50.0
290
     0
  0
SCALE
  5
53
102
{ACAD_REACTORS
330
47
102
}
330
47
100
AcDbScale
 70
     0
300
1:100
140
1.0
141
100.0
290
     0
  0
SCALE
  5
54
102
{ACAD_REACTORS
330
47
102
}
330
47
100
AcDbScale
 70
     0
300
2:1
140
2.0
141
1.0
290
     0
  0
SCALE
  5
55
102
{ACAD_REACTORS
330
47
102
}
330
47
100
AcDbScale
 70
     0
300
4:1
140
4.0
141
1.0
290
     0
  0
SCALE
  5
56
102
{ACAD_REACTORS
330
47
102
}
330
47
100
AcDbScale
 70
     0
300
8:1
140
8.0
141
1.0
290
     0
  0
SCALE
  5
57
102
{ACAD_REACTORS
330
47
102
}
330
47
100
AcDbScale
 70
     0
300
10:1
140
10.0
141
1.0
290
     0
  0
SCALE
  5
58
102
{ACAD_REACTORS
330
47
102
}
330
47
100
AcDbScale
 70
     0
300
100:1
140
100.0
141
1.0
290
     0
  0
SCALE
  5
59
102
{ACAD_REACTORS
330
47
102
}
330
47
100
AcDbScale
 70
     0
300
1/128" = 1'-0"
140
0.0078125
141
12.0
290
     0
  0
SCALE
  5
5A
102
{ACAD_REACTORS
330
47
102
}
330
47
100
AcDbScale
 70
     0
300
1/64" = 1'-0"
140
0.015625
141
12.0
290
     0
  0
SCALE
  5
5B
102
{ACAD_REACTORS
330
47
102
}
330
47
100
AcDbScale
 70
     0
300
1/32" = 1'-0"
140
0.03125
141
12.0
290
     0
  0
SCALE
  5
5C
102
{ACAD_REACTORS
330
47
102
}
330
47
100
AcDbScale
 70
     0
300
1/16" = 1'-0"
140
0.0625
141
12.0
290
     0
  0
SCALE
  5
5D
102
{ACAD_REACTORS
330
47
102
}
330
47
100
AcDbScale
 70
     0
300
3/32" = 1'-0"
140
0.09375
141
12.0
290
     0
  0
SCALE
  5
5E
102
{ACAD_REACTORS
330
47
102
}
330
47
100
AcDbScale
 70
     0
300
1/8" = 1'-0"
140
0.125
141
12.0
290
     0
  0
SCALE
  5
5F
102
{ACAD_REACTORS
330
47
102
}
330
47
100
AcDbScale
 70
     0
300
3/16" = 1'-0"
140
0.1875
141
12.0
290
     0
  0
SCALE
  5
60
102
{ACAD_REACTORS
330
47
102
}
330
47
100
AcDbScale
 70
     0
300
1/4" = 1'-0"
140
0.25
141
12.0
290
     0
  0
SCALE
  5
61
102
{ACAD_REACTORS
330
47
102
}
330
47
100
AcDbScale
 70
     0
300
3/8" = 1'-0"
140
0.375
141
12.0
290
     0
  0
SCALE
  5
62
102
{ACAD_REACTORS
330
47
102
}
330
47
100
AcDbScale
 70
     0
300
1/2" = 1'-0"
140
0.5
141
12.0
290
     0
  0
SCALE
  5
63
102
{ACAD_REACTORS
330
47
102
}
330
47
100
AcDbScale
 70
     0
300
3/4" = 1'-0"
140
0.75
141
12.0
290
     0
  0
SCALE
  5
64
102
{ACAD_REACTORS
330
47
102
}
330
47
100
AcDbScale
 70
     0
300
1" = 1'-0"
140
1.0
141
12.0
290
     0
  0
SCALE
  5
65
102
{ACAD_REACTORS
330
47
102
}
330
47
100
AcDbScale
 70
     0
300
1-1/2" = 1'-0"
140
1.5
141
12.0
290
     0
  0
SCALE
  5
66
102
{ACAD_REACTORS
330
47
102
}
330
47
100
AcDbScale
 70
     0
300
3" = 1'-0"
140
3.0
141
12.0
290
     0
  0
SCALE
  5
67
102
{ACAD_REACTORS
330
47
102
}
330
47
100
AcDbScale
 70
     0
300
6" = 1'-0"
140
6.0
141
12.0
290
     0
  0
SCALE
  5
68
102
{ACAD_REACTORS
330
47
102
}
330
47
100
AcDbScale
 70
     0
300
1'-0" = 1'-0"
140
12.0
141
12.0
290
     0
  0
ENDSEC
  0
EOF
